  0
SECTION
  2
HEADER
  9
$ACADVER
  1
AC1009
  9
$ANGBASE
 50
0.000000
  9
$ANGDIR
 70
     0
  9
$ATTDIA
 70
     0
  9
$ATTMODE
 70
     1
  9
$ATTREQ
 70
     1
  9
$AUNITS
 70
     0
  9
$AUPREC
 70
     0
  9
$AXISMODE
 70
     0
  9
$AXISUNIT
 10
0.000000
 20
0.000000
  9
$BLIPMODE
 70
     1
  9
$CECOLOR
 62
   256
  9
$CELTYPE
  6
BYLAYER
  9
$CHAMFERA
 40
0.000000
  9
$CHAMFERB
 40
0.000000
  9
$CLAYER
  8
0
  9
$COORDS
 70
     0
  9
$DIMALT
 70
     0
  9
$DIMALTD
 70
     2
  9
$DIMALTF
 40
25.400000
  9
$DIMAPOST
  1

  9
$DIMASO
 70
     1
  9
$DIMASZ
 40
0.153877
  9
$DIMBLK
  1

  9
$DIMBLK1
  1

  9
$DIMBLK2
  1

  9
$DIMCEN
 40
9.000000E-02
  9
$DIMDLE
 40
0.000000
  9
$DIMDLI
 40
0.380000
  9
$DIMEXE
 40
0.150000
  9
$DIMEXO
 40
0.100000
  9
$DIMLFAC
 40
1.000000
  9
$DIMLIM
 70
     0
  9
$DIMPOST
  1

  9
$DIMRND
 40
0.000000
  9
$DIMSCALE
 40
1.000000
  9
$DIMSE1
 70
     0
  9
$DIMSE2
 70
     0
  9
$DIMSHO
 70
     0
  9
$DIMTAD
 70
     0
  9
$DIMTIH
 70
     0
  9
$DIMTM
 40
0.000000
  9
$DIMTOH
 70
     1
  9
$DIMTOL
 70
     0
  9
$DIMTP
 40
0.000000
  9
$DIMTSZ
 40
0.000000
  9
$DIMTXT
 40
0.156000
  9
$DIMZIN
 70
     0
  9
$DRAGMODE
 70
     1
  9
$DWGCODEPAGE
  3
ansi_1252
  9
$ELEVATION
 40
0.000000
  9
$EXTMAX
 10
18.767982
 20
1.832982
 30
0.000000
  9
$EXTMIN
 10
-0.125000
 20
-9.417018
 30
0.000000
  9
$FASTZOOM
 70
     1
  9
$FILLETRAD
 40
6.250000E-02
  9
$FILLMODE
 70
     1
  9
$GRIDMODE
 70
     0
  9
$GRIDUNIT
 10
0.000000
 20
0.000000
  9
$INSBASE
 10
0.000000
 20
0.000000
 30
0.000000
  9
$LIMCHECK
 70
     0
  9
$LIMMAX
 10
18.767982
 20
1.832982
  9
$LIMMIN
 10
-0.125000
 20
-9.417018
  9
$LTSCALE
 40
1.000000
  9
$LUNITS
 70
     2
  9
$LUPREC
 70
     3
  9
$MEASUREMENT
 70
     0
  9
$MENU
  1
ACAD
  9
$MIRRTEXT
 70
     0
  9
$ORTHOMODE
 70
     0
  9
$OSMODE
 70
     0
  9
$PDMODE
 70
     0
  9
$PDSIZE
 40
0.000000
  9
$PLINEWID
 40
0.000000
  9
$PROXYGRAPHICS
 70
     0
  9
$QTEXTMODE
 70
     0
  9
$REGENMODE
 70
     1
  9
$SKETCHINC
 40
0.100000
  9
$SKPOLY
 70
     0
  9
$SNAPANG
 50
0.000000
  9
$SNAPBASE
 10
0.000000
 20
0.000000
  9
$SNAPISOPAIR
 70
     0
  9
$SNAPMODE
 70
     0
  9
$SNAPSTYLE
 70
     0
  9
$SNAPUNIT
 10
1.000000
 20
1.000000
  9
$SPLFRAME
 70
     0
  9
$SPLINESEGS
 70
     8
  9
$TDCREATE
 40
2453089.597917
  9
$TDINDWG
 40
0.000000
  9
$TDUPDATE
 40
2453089.597917
  9
$TDUSRTIMER
 40
0.000000
  9
$TEXTSIZE
 40
0.156000
  9
$TEXTSTYLE
  7
STANDARD
  9
$THICKNESS
 40
0.000000
  9
$TRACEWID
 40
5.000000E-02
  9
$USERI1
 70
     0
  9
$USERI2
 70
     0
  9
$USERI3
 70
     0
  9
$USERI4
 70
     0
  9
$USERI5
 70
     0
  9
$USERR1
 40
0.000000
  9
$USERR2
 40
0.000000
  9
$USERR3
 40
0.000000
  9
$USERR4
 40
0.000000
  9
$USERR5
 40
0.000000
  9
$USRTIMER
 70
     1
  9
$VIEWCTR
 10
9.321491
 20
-3.792018
  9
$VIEWDIR
 10
0.000000
 20
0.000000
 30
1.000000
  9
$VIEWSIZE
 40
11.250000
  0
ENDSEC
  0
SECTION
  2
TABLES
  0
TABLE
  2
LTYPE
 70
     3
  0
LTYPE
  2
SOLID
  3
Solid
 70
    64
 72
    65
 73
     0
 40
0.000000
  0
LTYPE
  2
CONSTRUCTION
  3
Construction
 70
    64
 72
    65
 73
     2
 40
4.000000E-02
 49
1.000000E-02
 49
-3.000000E-02
  0
LTYPE
  2
GAP
  3
Gap
 70
    64
 72
    65
 73
     3
 40
100.060000
 49
0.000000
 49
-6.000000E-02
 49
100.000000
  0
ENDTAB
  0
TABLE
  2
LAYER
 70
     3
  0
LAYER
  2
Layer0$C$L0
 70
     0
  6
SOLID
 62
     2
  0
LAYER
  2
Layer0$C$L0$B
 70
     0
  6
SOLID
 62
    -2
  0
LAYER
  2
Layer120$C$L120
 70
     0
  6
SOLID
 62
    91
  0
ENDTAB
  0
TABLE
  2
STYLE
 70
     1
  0
STYLE
  2
STANDARD
  3
txt
  4

 40
0.000000
 41
1.000000
 42
0.125000
 50
0.000000
 70
     0
 71
     0
  0
ENDTAB
  0
TABLE
  2
DIMSTYLE
 70
     3
  0
DIMSTYLE
  2
STANDARD
 70
     0
  3

  4

  5

  6

  7

 40
1.000000
 41
0.180000
 42
0.000000
 43
0.380000
 44
0.000000
 45
0.000000
 46
0.000000
 47
0.000000
 48
0.000000
140
0.156000
141
9.000000E-02
142
0.000000
143
1.000000
144
1.000000
145
0.000000
146
1.000000
147
7.800000E-02
 71
     0
 72
     0
 73
     0
 74
     0
 75
     0
 76
     0
 77
     3
 78
     0
170
     0
171
     0
172
     0
173
     0
174
     0
175
     0
176
     0
177
     0
178
     0
270
     2
271
     2
272
     2
273
     2
274
     2
275
     1
280
     0
281
     0
282
     0
283
     1
284
     0
285
     0
286
     0
287
     3
288
     0
  0
DIMSTYLE
  2
DIM1
 70
     1
  3

  4

  5

  6

  7

 40
1.000000
 41
0.153877
 42
0.100000
 43
0.380000
 44
0.150000
 45
0.000000
 46
0.000000
 47
0.000000
 48
0.000000
140
0.125000
141
9.000000E-02
142
0.000000
143
1.000000
144
1.000000
145
0.000000
146
1.000000
147
6.250000E-02
 71
     0
 72
     0
 73
     1
 74
     1
 75
     0
 76
     0
 77
     0
 78
     0
170
     0
171
     0
172
     0
173
     0
174
     0
175
     0
176
     0
177
     0
178
     0
270
     2
271
     2
272
     2
273
     2
274
     0
275
     1
280
     0
281
     0
282
     0
283
     1
284
     0
285
     0
286
     0
287
     3
288
     0
  0
DIMSTYLE
  2
DIM2
 70
     2
  3

  4

  5

  6

  7

 40
1.000000
 41
0.153877
 42
0.100000
 43
0.380000
 44
0.150000
 45
0.000000
 46
0.000000
 47
0.000000
 48
0.000000
140
0.125000
141
9.000000E-02
142
0.000000
143
1.000000
144
1.000000
145
0.000000
146
1.000000
147
6.250000E-02
 71
     0
 72
     0
 73
     1
 74
     1
 75
     0
 76
     0
 77
     0
 78
     0
170
     0
171
     0
172
     0
173
     0
174
     0
175
     0
176
     0
177
     0
178
     0
270
     2
271
     3
272
     3
273
     2
274
     0
275
     1
280
     0
281
     0
282
     0
283
     1
284
     0
285
     0
286
     0
287
     3
288
     0
  0
ENDTAB
  0
TABLE
  2
APPID
  5
1
100
AcDbSymbolTable
 70
     1
  0
APPID
  5
2
100
AcDbSymbolTableRecord
100
AcDbRegAppTableRecord
  2
ACAD
 70
     0
  0
ENDTAB
  0
ENDSEC
  0
SECTION
  2
BLOCKS
  0
BLOCK
  8
Layer0$C$L0
  2
*D0
 70
     1
 10
0.000000
 20
0.000000
  0
SOLID
  8
Layer0$C$L0
 10
2.757364
 20
-4.007552
 11
2.818232
 21
-4.007552
 12
2.787798
 22
-3.854549
 13
2.787798
 23
-3.854549
  0
LINE
  8
Layer0$C$L0
 10
2.787798
 20
-3.854549
 11
2.787798
 21
-4.775483
  0
SOLID
  8
Layer0$C$L0
 10
2.818232
 20
-5.710075
 11
2.757364
 21
-5.710075
 12
2.787798
 22
-5.863077
 13
2.787798
 23
-5.863077
  0
LINE
  8
Layer0$C$L0
 10
2.787798
 20
-5.863077
 11
2.787798
 21
-5.025483
  0
LINE
  8
Layer0$C$L0
  6
GAP
 10
3.258473
 20
-3.854549
 11
2.637798
 21
-3.854549
  0
LINE
  8
Layer0$C$L0
  6
GAP
 10
3.258473
 20
-5.863077
 11
2.637798
 21
-5.863077
  0
TEXT
  8
Layer0$C$L0
 10
2.554511
 20
-4.962983
 40
0.125000
  1
2.01
 72
     5
 11
3.021086
 21
-4.962983
  0
ENDBLK
  8
Layer0$C$L0
  0
BLOCK
  8
Layer0$C$L0
  2
*D1
 70
     1
 10
0.000000
 20
0.000000
  0
SOLID
  8
Layer0$C$L0
 10
3.442942
 20
-6.400164
 11
3.442942
 21
-6.339295
 12
3.289939
 22
-6.369730
 13
3.289939
 23
-6.369730
  0
LINE
  8
Layer0$C$L0
 10
3.289939
 20
-6.369730
 11
4.167284
 21
-6.369730
  0
SOLID
  8
Layer0$C$L0
 10
5.730156
 20
-6.339295
 11
5.730156
 21
-6.400164
 12
5.883159
 22
-6.369730
 13
5.883159
 23
-6.369730
  0
LINE
  8
Layer0$C$L0
 10
5.883159
 20
-6.369730
 11
4.758859
 21
-6.369730
  0
LINE
  8
Layer0$C$L0
  6
GAP
 10
3.289939
 20
-5.963077
 11
3.289939
 21
-6.519730
  0
LINE
  8
Layer0$C$L0
  6
GAP
 10
5.883159
 20
-5.963077
 11
5.883159
 21
-6.519730
  0
TEXT
  8
Layer0$C$L0
 10
4.229784
 20
-6.432230
 40
0.125000
  1
2.59
 72
     5
 11
4.696359
 21
-6.432230
  0
ENDBLK
  8
Layer0$C$L0
  0
BLOCK
  8
Layer0$C$L0
  2
*D2
 70
     1
 10
0.000000
 20
0.000000
  0
SOLID
  8
Layer0$C$L0
 10
7.350992
 20
-4.078080
 11
7.411860
 21
-4.078080
 12
7.381426
 22
-3.925077
 13
7.381426
 23
-3.925077
  0
LINE
  8
Layer0$C$L0
 10
7.381426
 20
-3.925077
 11
7.381426
 21
-4.738028
  0
SOLID
  8
Layer0$C$L0
 10
7.411860
 20
-5.710075
 11
7.350992
 21
-5.710075
 12
7.381426
 22
-5.863077
 13
7.381426
 23
-5.863077
  0
LINE
  8
Layer0$C$L0
 10
7.381426
 20
-5.863077
 11
7.381426
 21
-4.988028
  0
LINE
  8
Layer0$C$L0
  6
GAP
 10
6.004007
 20
-3.925077
 11
7.531426
 21
-3.925077
  0
LINE
  8
Layer0$C$L0
  6
GAP
 10
5.983159
 20
-5.863077
 11
7.531426
 21
-5.863077
  0
TEXT
  8
Layer0$C$L0
 10
7.148138
 20
-4.925528
 40
0.125000
  1
1.94
 72
     5
 11
7.614713
 21
-4.925528
  0
ENDBLK
  8
Layer0$C$L0
  0
BLOCK
  8
Layer0$C$L0
  2
*D3
 70
     1
 10
0.000000
 20
0.000000
  0
SOLID
  8
Layer0$C$L0
 10
6.344767
 20
-5.131080
 11
6.405635
 21
-5.131080
 12
6.375201
 22
-4.978077
 13
6.375201
 23
-4.978077
  0
LINE
  8
Layer0$C$L0
 10
6.375201
 20
-4.978077
 11
6.375201
 21
-5.218665
  0
SOLID
  8
Layer0$C$L0
 10
6.405635
 20
-5.710075
 11
6.344767
 21
-5.710075
 12
6.375201
 22
-5.863077
 13
6.375201
 23
-5.863077
  0
LINE
  8
Layer0$C$L0
 10
6.375201
 20
-5.863077
 11
6.375201
 21
-5.468665
  0
LINE
  8
Layer0$C$L0
  6
GAP
 10
5.660641
 20
-4.978077
 11
6.525201
 21
-4.978077
  0
LINE
  8
Layer0$C$L0
  6
GAP
 10
5.660641
 20
-5.863077
 11
6.525201
 21
-5.863077
  0
TEXT
  8
Layer0$C$L0
 10
6.204413
 20
-5.406165
 40
0.125000
  1
.88
 72
     5
 11
6.545989
 21
-5.406165
  0
ENDBLK
  8
Layer0$C$L0
  0
BLOCK
  8
Layer0$C$L0
  2
*D4
 70
     1
 10
0.000000
 20
0.000000
  0
SOLID
  8
Layer0$C$L0
 10
6.820629
 20
-4.786080
 11
6.881497
 21
-4.786080
 12
6.851063
 22
-4.633078
 13
6.851063
 23
-4.633078
  0
LINE
  8
Layer0$C$L0
 10
6.851063
 20
-4.633078
 11
6.851063
 21
-4.957749
  0
SOLID
  8
Layer0$C$L0
 10
6.881497
 20
-5.710075
 11
6.820629
 21
-5.710075
 12
6.851063
 22
-5.863077
 13
6.851063
 23
-5.863077
  0
LINE
  8
Layer0$C$L0
 10
6.851063
 20
-5.863077
 11
6.851063
 21
-5.207749
  0
LINE
  8
Layer0$C$L0
  6
GAP
 10
5.660641
 20
-4.633078
 11
7.001063
 21
-4.633078
  0
LINE
  8
Layer0$C$L0
  6
GAP
 10
5.660641
 20
-5.863077
 11
7.001063
 21
-5.863077
  0
TEXT
  8
Layer0$C$L0
 10
6.617775
 20
-5.145249
 40
0.125000
  1
1.23
 72
     5
 11
7.084350
 21
-5.145249
  0
ENDBLK
  8
Layer0$C$L0
  0
BLOCK
  8
Layer0$C$L0
  2
*D5
 70
     1
 10
0.000000
 20
0.000000
  0
SOLID
  8
Layer0$C$L0
 10
2.696324
 20
-3.145306
 11
2.757192
 21
-3.145306
 12
2.726758
 22
-2.992303
 13
2.726758
 23
-2.992303
  0
LINE
  8
Layer0$C$L0
 10
2.726758
 20
-2.992303
 11
2.726758
 21
-3.335886
  0
SOLID
  8
Layer0$C$L0
 10
2.757192
 20
-2.526301
 11
2.696324
 21
-2.526301
 12
2.726758
 22
-2.679303
 13
2.726758
 23
-2.679303
  0
LINE
  8
Layer0$C$L0
 10
2.726758
 20
-2.679303
 11
2.726758
 21
-2.279304
  0
LINE
  8
Layer0$C$L0
  6
GAP
 10
3.190066
 20
-2.992303
 11
2.576758
 21
-2.992303
  0
LINE
  8
Layer0$C$L0
  6
GAP
 10
3.483338
 20
-2.679303
 11
2.576758
 21
-2.679303
  0
TEXT
  8
Layer0$C$L0
 10
2.555971
 20
-3.523386
 40
0.125000
  1
.31
 72
     5
 11
2.897546
 21
-3.523386
  0
ENDBLK
  8
Layer0$C$L0
  0
BLOCK
  8
Layer0$C$L0
  2
*D6
 70
     1
 10
0.000000
 20
0.000000
  0
SOLID
  8
Layer0$C$L0
 10
5.623390
 20
-0.291325
 11
5.584696
 21
-0.244339
 12
5.485935
 22
-0.365096
 13
5.485935
 23
-0.365096
  0
LINE
  8
Layer0$C$L0
 10
5.485935
 20
-0.365096
 11
6.321133
 21
0.322710
  0
LINE
  8
Layer0$C$L0
 10
6.321133
 20
0.322710
 11
6.487504
 21
0.322710
  0
TEXT
  8
Layer0$C$L0
 10
6.550004
 20
0.260210
 40
0.125000
  1
.20
 72
     5
 11
6.891580
 21
0.260210
  0
ENDBLK
  8
Layer0$C$L0
  0
BLOCK
  8
Layer0$C$L0
  2
*D7
 70
     1
 10
0.000000
 20
0.000000
  0
SOLID
  8
Layer0$C$L0
 10
3.920972
 20
0.350194
 11
3.920972
 21
0.411062
 12
3.767969
 22
0.380628
 13
3.767969
 23
0.380628
  0
LINE
  8
Layer0$C$L0
 10
3.767969
 20
0.380628
 11
3.909376
 21
0.380628
  0
SOLID
  8
Layer0$C$L0
 10
4.434967
 20
0.411062
 11
4.434967
 21
0.350194
 12
4.587970
 22
0.380628
 13
4.587970
 23
0.380628
  0
LINE
  8
Layer0$C$L0
 10
4.587970
 20
0.380628
 11
4.375951
 21
0.380628
  0
LINE
  8
Layer0$C$L0
  6
GAP
 10
3.767969
 20
-0.142065
 11
3.767969
 21
0.530628
  0
LINE
  8
Layer0$C$L0
  6
GAP
 10
4.587970
 20
-0.142065
 11
4.587970
 21
0.530629
  0
TEXT
  8
Layer0$C$L0
 10
3.971876
 20
0.318128
 40
0.125000
  1
.82
 72
     5
 11
4.313451
 21
0.318128
  0
ENDBLK
  8
Layer0$C$L0
  0
BLOCK
  8
Layer0$C$L0
  2
*D8
 70
     1
 10
0.000000
 20
0.000000
  0
SOLID
  8
Layer0$C$L0
 10
3.920972
 20
0.850841
 11
3.920972
 21
0.911709
 12
3.767969
 22
0.881275
 13
3.767969
 23
0.881275
  0
LINE
  8
Layer0$C$L0
 10
3.767969
 20
0.881275
 11
4.233661
 21
0.881275
  0
SOLID
  8
Layer0$C$L0
 10
5.254967
 20
0.911709
 11
5.254967
 21
0.850841
 12
5.407970
 22
0.881275
 13
5.407970
 23
0.881275
  0
LINE
  8
Layer0$C$L0
 10
5.407970
 20
0.881275
 11
4.825236
 21
0.881275
  0
LINE
  8
Layer0$C$L0
  6
GAP
 10
3.767969
 20
-0.142065
 11
3.767969
 21
1.031274
  0
LINE
  8
Layer0$C$L0
  6
GAP
 10
5.407970
 20
-0.142065
 11
5.407970
 21
1.031275
  0
TEXT
  8
Layer0$C$L0
 10
4.296161
 20
0.818775
 40
0.125000
  1
1.64
 72
     5
 11
4.762737
 21
0.818775
  0
TEXT
  8
Layer0$C$L0
 10
4.296161
 20
0.631275
 40
0.125000
  1
REF.
 72
     5
 11
4.762737
 21
0.631275
  0
ENDBLK
  8
Layer0$C$L0
  0
BLOCK
  8
Layer0$C$L0
  2
*D9
 70
     1
 10
0.000000
 20
0.000000
  0
SOLID
  8
Layer0$C$L0
 10
3.443068
 20
0.350194
 11
3.443068
 21
0.411062
 12
3.290066
 22
0.380628
 13
3.290066
 23
0.380628
  0
SOLID
  8
Layer0$C$L0
 10
3.614967
 20
0.411062
 11
3.614967
 21
0.350194
 12
3.767969
 22
0.380628
 13
3.767969
 23
0.380628
  0
LINE
  8
Layer0$C$L0
 10
3.290066
 20
0.380628
 11
3.767969
 21
0.380628
  0
LINE
  8
Layer0$C$L0
 10
3.290066
 20
0.380628
 11
2.928207
 21
0.380628
  0
LINE
  8
Layer0$C$L0
  6
GAP
 10
3.290066
 20
-1.730313E-02
 11
3.290066
 21
0.530628
  0
LINE
  8
Layer0$C$L0
  6
GAP
 10
3.767969
 20
-0.142065
 11
3.767969
 21
0.530628
  0
TEXT
  8
Layer0$C$L0
 10
2.524132
 20
0.318128
 40
0.125000
  1
.48
 72
     5
 11
2.865707
 21
0.318128
  0
ENDBLK
  8
Layer0$C$L0
  0
BLOCK
  8
Layer0$C$L0
  2
*D10
 70
     1
 10
0.000000
 20
0.000000
  0
SOLID
  8
Layer0$C$L0
 10
2.757192
 20
-2.526301
 11
2.696324
 21
-2.526301
 12
2.726758
 22
-2.679303
 13
2.726758
 23
-2.679303
  0
LINE
  8
Layer0$C$L0
 10
2.726758
 20
-2.679303
 11
2.726758
 21
-1.700020
  0
SOLID
  8
Layer0$C$L0
 10
2.696324
 20
-0.582305
 11
2.757192
 21
-0.582305
 12
2.726758
 22
-0.429302
 13
2.726758
 23
-0.429302
  0
LINE
  8
Layer0$C$L0
 10
2.726758
 20
-0.429302
 11
2.726758
 21
-1.450020
  0
LINE
  8
Layer0$C$L0
  6
GAP
 10
3.483338
 20
-2.679303
 11
2.576758
 21
-2.679303
  0
LINE
  8
Layer0$C$L0
  6
GAP
 10
3.471612
 20
-0.429302
 11
2.576758
 21
-0.429302
  0
TEXT
  8
Layer0$C$L0
 10
2.493470
 20
-1.637520
 40
0.125000
  1
2.25
 72
     5
 11
2.960046
 21
-1.637520
  0
ENDBLK
  8
Layer0$C$L0
  0
BLOCK
  8
Layer0$C$L0
  2
*D11
 70
     1
 10
0.000000
 20
0.000000
  0
SOLID
  8
Layer0$C$L0
 10
2.256756
 20
-2.839301
 11
2.195888
 21
-2.839301
 12
2.226322
 22
-2.992303
 13
2.226322
 23
-2.992303
  0
LINE
  8
Layer0$C$L0
 10
2.226322
 20
-2.992303
 11
2.226322
 21
-1.524191
  0
SOLID
  8
Layer0$C$L0
 10
2.195888
 20
-0.270306
 11
2.256756
 21
-0.270306
 12
2.226322
 22
-0.117303
 13
2.226322
 23
-0.117303
  0
LINE
  8
Layer0$C$L0
 10
2.226322
 20
-0.117303
 11
2.226322
 21
-1.274191
  0
LINE
  8
Layer0$C$L0
  6
GAP
 10
3.190066
 20
-2.992303
 11
2.076322
 21
-2.992303
  0
LINE
  8
Layer0$C$L0
  6
GAP
 10
3.190066
 20
-0.117303
 11
2.076322
 21
-0.117303
  0
TEXT
  8
Layer0$C$L0
 10
1.993034
 20
-1.461691
 40
0.125000
  1
2.87
 72
     5
 11
2.459610
 21
-1.461691
  0
ENDBLK
  8
Layer0$C$L0
  0
BLOCK
  8
Layer0$C$L0
  2
*D12
 70
     1
 10
0.000000
 20
0.000000
  0
SOLID
  8
Layer0$C$L0
 10
9.147369
 20
-5.706829
 11
9.086501
 21
-5.706829
 12
9.116935
 22
-5.859832
 13
9.116935
 23
-5.859832
  0
LINE
  8
Layer0$C$L0
 10
9.116935
 20
-5.859832
 11
9.116935
 21
-5.419844
  0
SOLID
  8
Layer0$C$L0
 10
9.086501
 20
-4.832834
 11
9.147369
 21
-4.832834
 12
9.116935
 22
-4.679832
 13
9.116935
 23
-4.679832
  0
LINE
  8
Layer0$C$L0
 10
9.116935
 20
-4.679832
 11
9.116935
 21
-5.169844
  0
LINE
  8
Layer0$C$L0
  6
GAP
 10
9.571261
 20
-5.859832
 11
8.966934
 21
-5.859832
  0
LINE
  8
Layer0$C$L0
  6
GAP
 10
10.043778
 20
-4.679832
 11
8.966934
 21
-4.679832
  0
TEXT
  8
Layer0$C$L0
 10
8.883647
 20
-5.357344
 40
0.125000
  1
1.18
 72
     5
 11
9.350222
 21
-5.357344
  0
ENDBLK
  8
Layer0$C$L0
  0
BLOCK
  8
Layer0$C$L0
  2
*X0
 70
     1
 10
0.000000
 20
0.000000
  0
LINE
  8
Layer0$C$L0
 10
4.877482
 20
-1.554191E-03
 11
4.889668
 21
1.063160E-02
  0
LINE
  8
Layer0$C$L0
 10
4.886739
 20
2.891550E-02
 11
4.853525
 21
-4.298434E-03
  0
LINE
  8
Layer0$C$L0
 10
4.830322
 20
-6.287912E-03
 11
4.883810
 21
4.719939E-02
  0
LINE
  8
Layer0$C$L0
 10
4.880880
 20
6.548329E-02
 11
4.807885
 21
-7.512460E-03
  0
LINE
  8
Layer0$C$L0
 10
4.786201
 20
-7.983072E-03
 11
4.862841
 21
6.865681E-02
  0
LINE
  8
Layer0$C$L0
 10
4.838506
 20
6.553490E-02
 11
4.765243
 21
-7.727982E-03
  0
LINE
  8
Layer0$C$L0
 10
4.745091
 20
-6.666402E-03
 11
4.818429
 21
6.667171E-02
  0
LINE
  8
Layer0$C$L0
 10
4.804770
 20
7.422546E-02
 11
4.725945
 21
-4.599073E-03
  0
LINE
  8
Layer0$C$L0
 10
4.708183
 20
-1.148099E-03
 11
4.800126
 21
9.079488E-02
  0
LINE
  8
Layer0$C$L0
 10
4.799984
 20
0.111866
 11
4.692246
 21
4.128182E-03
  0
LINE
  8
Layer0$C$L0
 10
4.885571
 20
0.197453
 11
4.881079
 21
0.192961
  0
LINE
  8
Layer0$C$L0
 10
4.799984
 20
0.133079
 11
4.678338
 21
1.143258E-02
  0
LINE
  8
Layer0$C$L0
 10
4.885571
 20
0.218666
 11
4.859866
 21
0.192961
  0
LINE
  8
Layer0$C$L0
 10
4.799984
 20
0.154292
 11
4.666494
 21
2.080268E-02
  0
LINE
  8
Layer0$C$L0
 10
4.885571
 20
0.239879
 11
4.838653
 21
0.192961
  0
LINE
  8
Layer0$C$L0
 10
4.799984
 20
0.175506
 11
4.656990
 21
3.251142E-02
  0
LINE
  8
Layer0$C$L0
 10
4.885571
 20
0.261093
 11
4.817440
 21
0.192961
  0
LINE
  8
Layer0$C$L0
 10
4.871875
 20
0.268610
 11
4.650315
 21
4.704990E-02
  0
LINE
  8
Layer0$C$L0
 10
4.850662
 20
0.268610
 11
4.646334
 21
6.428210E-02
  0
LINE
  8
Layer0$C$L0
 10
4.829449
 20
0.268610
 11
4.644312
 21
8.347376E-02
  0
LINE
  8
Layer0$C$L0
 10
4.808236
 20
0.268610
 11
4.644067
 21
0.104441
  0
LINE
  8
Layer0$C$L0
 10
4.517905
 20
-5.070965E-04
 11
4.516507
 21
-1.904964E-03
  0
LINE
  8
Layer0$C$L0
 10
4.799984
 20
0.281572
 11
4.644067
 21
0.125654
  0
LINE
  8
Layer0$C$L0
 10
4.517905
 20
2.070611E-02
 11
4.495294
 21
-1.904964E-03
  0
LINE
  8
Layer0$C$L0
 10
4.799984
 20
0.302785
 11
4.644067
 21
0.146868
  0
LINE
  8
Layer0$C$L0
 10
4.517905
 20
4.191931E-02
 11
4.474081
 21
-1.904964E-03
  0
LINE
  8
Layer0$C$L0
 10
4.799984
 20
0.323998
 11
4.644067
 21
0.168081
  0
LINE
  8
Layer0$C$L0
 10
4.517905
 20
6.313252E-02
 11
4.452868
 21
-1.904964E-03
  0
LINE
  8
Layer0$C$L0
 10
4.799984
 20
0.345211
 11
4.644067
 21
0.189294
  0
LINE
  8
Layer0$C$L0
 10
4.517905
 20
8.434572E-02
 11
4.431654
 21
-1.904964E-03
  0
LINE
  8
Layer0$C$L0
 10
4.799984
 20
0.366424
 11
4.626521
 21
0.192961
  0
LINE
  8
Layer0$C$L0
 10
4.517905
 20
0.105559
 11
4.410441
 21
-1.904964E-03
  0
LINE
  8
Layer0$C$L0
 10
4.775586
 20
0.363240
 11
4.605307
 21
0.192961
  0
LINE
  8
Layer0$C$L0
 10
4.517905
 20
0.126772
 11
4.389228
 21
-1.904964E-03
  0
LINE
  8
Layer0$C$L0
 10
4.743381
 20
0.352248
 11
4.586657
 21
0.195524
  0
LINE
  8
Layer0$C$L0
 10
4.517905
 20
0.147985
 11
4.372555
 21
2.634871E-03
  0
LINE
  8
Layer0$C$L0
 10
4.638530
 20
0.268610
 11
4.586657
 21
0.216737
  0
LINE
  8
Layer0$C$L0
 10
4.711176
 20
0.341256
 11
4.644067
 21
0.274147
  0
LINE
  8
Layer0$C$L0
 10
4.517905
 20
0.169199
 11
4.372555
 21
2.384808E-02
  0
LINE
  8
Layer0$C$L0
 10
4.617317
 20
0.268610
 11
4.586657
 21
0.237950
  0
LINE
  8
Layer0$C$L0
 10
4.678971
 20
0.330264
 11
4.644067
 21
0.295360
  0
LINE
  8
Layer0$C$L0
 10
4.517905
 20
0.190412
 11
4.358288
 21
3.079451E-02
  0
LINE
  8
Layer0$C$L0
 10
4.596104
 20
0.268610
 11
4.586657
 21
0.259164
  0
LINE
  8
Layer0$C$L0
 10
4.646766
 20
0.319272
 11
4.644067
 21
0.316573
  0
LINE
  8
Layer0$C$L0
 10
4.517905
 20
0.211625
 11
4.311284
 21
5.003541E-03
  0
LINE
  8
Layer0$C$L0
 10
4.517905
 20
0.232838
 11
4.281897
 21
-3.170433E-03
  0
LINE
  8
Layer0$C$L0
 10
4.517905
 20
0.254051
 11
4.257231
 21
-6.623076E-03
  0
LINE
  8
Layer0$C$L0
 10
4.317414
 20
7.477361E-02
 11
4.234738
 21
-7.902125E-03
  0
LINE
  8
Layer0$C$L0
 10
4.511250
 20
0.268610
 11
4.360613
 21
0.117973
  0
LINE
  8
Layer0$C$L0
 10
4.294462
 20
7.303433E-02
 11
4.213686
 21
-7.741352E-03
  0
LINE
  8
Layer0$C$L0
 10
4.490037
 20
0.268610
 11
4.362252
 21
0.140825
  0
LINE
  8
Layer0$C$L0
 10
4.275916
 20
7.570126E-02
 11
4.193987
 21
-6.227551E-03
  0
LINE
  8
Layer0$C$L0
 10
4.468824
 20
0.268610
 11
4.362252
 21
0.162038
  0
LINE
  8
Layer0$C$L0
 10
4.261143
 20
8.214171E-02
 11
4.175734
 21
-3.267384E-03
  0
LINE
  8
Layer0$C$L0
 10
4.447611
 20
0.268610
 11
4.362252
 21
0.183251
  0
LINE
  8
Layer0$C$L0
 10
4.250848
 20
9.306020E-02
 11
4.158939
 21
1.151254E-03
  0
LINE
  8
Layer0$C$L0
 10
4.426398
 20
0.268610
 11
4.362252
 21
0.204464
  0
LINE
  8
Layer0$C$L0
 10
4.245618
 20
0.109044
 11
4.143588
 21
7.013573E-03
  0
LINE
  8
Layer0$C$L0
 10
4.405185
 20
0.268610
 11
4.362252
 21
0.225678
  0
LINE
  8
Layer0$C$L0
 10
4.244953
 20
0.129592
 11
4.129766
 21
1.440426E-02
  0
LINE
  8
Layer0$C$L0
 10
4.383972
 20
0.268610
 11
4.362252
 21
0.246891
  0
LINE
  8
Layer0$C$L0
 10
4.244953
 20
0.150805
 11
4.117622
 21
2.347392E-02
  0
LINE
  8
Layer0$C$L0
 10
4.362758
 20
0.268610
 11
4.362252
 21
0.268104
  0
LINE
  8
Layer0$C$L0
 10
4.244953
 20
0.172018
 11
4.107303
 21
3.436779E-02
  0
LINE
  8
Layer0$C$L0
 10
4.244953
 20
0.193231
 11
4.099097
 21
4.737508E-02
  0
LINE
  8
Layer0$C$L0
 10
4.244953
 20
0.214445
 11
4.093106
 21
6.259754E-02
  0
LINE
  8
Layer0$C$L0
 10
4.244953
 20
0.235658
 11
4.089411
 21
8.011533E-02
  0
LINE
  8
Layer0$C$L0
 10
3.997189
 20
9.106799E-03
 11
3.986177
 21
-1.904964E-03
  0
LINE
  8
Layer0$C$L0
 10
4.244953
 20
0.256871
 11
4.088646
 21
0.100564
  0
LINE
  8
Layer0$C$L0
 10
3.997189
 20
3.032000E-02
 11
3.964964
 21
-1.904964E-03
  0
LINE
  8
Layer0$C$L0
 10
4.235479
 20
0.268610
 11
4.088646
 21
0.121777
  0
LINE
  8
Layer0$C$L0
 10
3.997189
 20
5.153321E-02
 11
3.943751
 21
-1.904964E-03
  0
LINE
  8
Layer0$C$L0
 10
4.214266
 20
0.268610
 11
4.088646
 21
0.142990
  0
LINE
  8
Layer0$C$L0
 10
3.997189
 20
7.274641E-02
 11
3.922538
 21
-1.904964E-03
  0
LINE
  8
Layer0$C$L0
 10
4.193053
 20
0.268610
 11
4.088646
 21
0.164203
  0
LINE
  8
Layer0$C$L0
 10
3.997189
 20
9.395961E-02
 11
3.901325
 21
-1.904964E-03
  0
LINE
  8
Layer0$C$L0
 10
4.171839
 20
0.268610
 11
4.088646
 21
0.185417
  0
LINE
  8
Layer0$C$L0
 10
3.997189
 20
0.115173
 11
3.880111
 21
-1.904964E-03
  0
LINE
  8
Layer0$C$L0
 10
4.150626
 20
0.268610
 11
4.088646
 21
0.206630
  0
LINE
  8
Layer0$C$L0
 10
3.997189
 20
0.136386
 11
3.858898
 21
-1.904964E-03
  0
LINE
  8
Layer0$C$L0
 10
4.129413
 20
0.268610
 11
4.088646
 21
0.227843
  0
LINE
  8
Layer0$C$L0
 10
3.997189
 20
0.157599
 11
3.841272
 21
1.682055E-03
  0
LINE
  8
Layer0$C$L0
 10
4.108200
 20
0.268610
 11
4.088646
 21
0.249056
  0
LINE
  8
Layer0$C$L0
 10
3.997021
 20
0.178645
 11
3.841272
 21
2.289526E-02
  0
LINE
  8
Layer0$C$L0
 10
3.994254
 20
0.197091
 11
3.841272
 21
4.410846E-02
  0
LINE
  8
Layer0$C$L0
 10
3.989119
 20
0.213169
 11
3.841272
 21
6.532167E-02
  0
LINE
  8
Layer0$C$L0
 10
3.981820
 20
0.227083
 11
3.841272
 21
8.653487E-02
  0
LINE
  8
Layer0$C$L0
 10
3.972314
 20
0.238791
 11
3.841272
 21
0.107748
  0
LINE
  8
Layer0$C$L0
 10
3.730500
 20
1.818938E-02
 11
3.710406
 21
-1.904964E-03
  0
LINE
  8
Layer0$C$L0
 10
3.960901
 20
0.248590
 11
3.841272
 21
0.128961
  0
LINE
  8
Layer0$C$L0
 10
3.730500
 20
3.940259E-02
 11
3.689193
 21
-1.904964E-03
  0
LINE
  8
Layer0$C$L0
 10
3.947785
 20
0.256688
 11
3.841272
 21
0.150174
  0
LINE
  8
Layer0$C$L0
 10
3.730500
 20
6.061579E-02
 11
3.667979
 21
-1.904964E-03
  0
LINE
  8
Layer0$C$L0
 10
3.933095
 20
0.263211
 11
3.838470
 21
0.168586
  0
LINE
  8
Layer0$C$L0
 10
3.730500
 20
8.182899E-02
 11
3.646766
 21
-1.904964E-03
  0
LINE
  8
Layer0$C$L0
 10
3.916925
 20
0.268254
 11
3.829282
 21
0.180611
  0
LINE
  8
Layer0$C$L0
 10
3.730500
 20
0.103042
 11
3.625553
 21
-1.904964E-03
  0
LINE
  8
Layer0$C$L0
 10
3.899303
 20
0.271845
 11
3.816163
 21
0.188705
  0
LINE
  8
Layer0$C$L0
 10
3.730500
 20
0.124255
 11
3.604340
 21
-1.904964E-03
  0
LINE
  8
Layer0$C$L0
 10
3.880244
 20
0.274000
 11
3.799294
 21
0.193049
  0
LINE
  8
Layer0$C$L0
 10
3.730724
 20
0.145693
 11
3.583126
 21
-1.904964E-03
  0
LINE
  8
Layer0$C$L0
 10
3.859807
 20
0.274776
 11
3.777565
 21
0.192533
  0
LINE
  8
Layer0$C$L0
 10
3.838057
 20
0.274238
 11
3.574453
 21
1.063470E-02
  0
LINE
  8
Layer0$C$L0
 10
3.814564
 20
0.271959
 11
3.574453
 21
3.184790E-02
  0
LINE
  8
Layer0$C$L0
 10
3.787749
 20
0.266357
 11
3.574453
 21
5.306111E-02
  0
LINE
  8
Layer0$C$L0
 10
3.750980
 20
0.250801
 11
3.574453
 21
7.427431E-02
  0
LINE
  8
Layer0$C$L0
 10
3.712966
 20
0.234001
 11
3.574453
 21
9.548751E-02
  0
LINE
  8
Layer0$C$L0
 10
3.464335
 20
6.582805E-03
 11
3.455847
 21
-1.904964E-03
  0
LINE
  8
Layer0$C$L0
 10
3.702233
 20
0.244480
 11
3.574453
 21
0.116701
  0
LINE
  8
Layer0$C$L0
 10
3.464335
 20
2.779601E-02
 11
3.434634
 21
-1.904964E-03
  0
LINE
  8
Layer0$C$L0
 10
3.690003
 20
0.253464
 11
3.574453
 21
0.137914
  0
LINE
  8
Layer0$C$L0
 10
3.464335
 20
4.900921E-02
 11
3.413421
 21
-1.904964E-03
  0
LINE
  8
Layer0$C$L0
 10
3.676264
 20
0.260938
 11
3.574035
 21
0.158709
  0
LINE
  8
Layer0$C$L0
 10
3.464335
 20
7.022242E-02
 11
3.392208
 21
-1.904964E-03
  0
LINE
  8
Layer0$C$L0
 10
3.660873
 20
0.266760
 11
3.569251
 21
0.175138
  0
LINE
  8
Layer0$C$L0
 10
3.464335
 20
9.143562E-02
 11
3.370994
 21
-1.904964E-03
  0
LINE
  8
Layer0$C$L0
 10
3.643776
 20
0.270876
 11
3.558313
 21
0.185413
  0
LINE
  8
Layer0$C$L0
 10
3.464335
 20
0.112649
 11
3.349781
 21
-1.904964E-03
  0
LINE
  8
Layer0$C$L0
 10
3.625102
 20
0.273416
 11
3.543499
 21
0.191812
  0
LINE
  8
Layer0$C$L0
 10
3.464335
 20
0.133862
 11
3.328568
 21
-1.904964E-03
  0
LINE
  8
Layer0$C$L0
 10
3.605102
 20
0.274629
 11
3.524476
 21
0.194003
  0
LINE
  8
Layer0$C$L0
 10
3.467026
 20
0.157766
 11
3.308421
 21
-8.388394E-04
  0
LINE
  8
Layer0$C$L0
 10
3.583906
 20
0.274647
 11
3.499248
 21
0.189988
  0
LINE
  8
Layer0$C$L0
 10
3.561294
 20
0.273248
 11
3.308421
 21
2.037436E-02
  0
LINE
  8
Layer0$C$L0
 10
3.536311
 20
0.269478
 11
3.308421
 21
4.158757E-02
  0
LINE
  8
Layer0$C$L0
 10
3.505919
 20
0.260299
 11
3.308421
 21
6.280077E-02
  0
LINE
  8
Layer0$C$L0
 10
3.453634
 20
0.229227
 11
3.308421
 21
8.401398E-02
  0
LINE
  8
Layer0$C$L0
 10
3.453634
 20
0.250440
 11
3.308421
 21
0.105227
  0
LINE
  8
Layer0$C$L0
 10
3.450591
 20
0.268610
 11
3.308421
 21
0.126440
  0
LINE
  8
Layer0$C$L0
 10
3.429377
 20
0.268610
 11
3.308421
 21
0.147654
  0
LINE
  8
Layer0$C$L0
 10
3.408164
 20
0.268610
 11
3.308421
 21
0.168867
  0
LINE
  8
Layer0$C$L0
 10
3.386951
 20
0.268610
 11
3.308421
 21
0.190080
  0
LINE
  8
Layer0$C$L0
 10
3.133156
 20
3.602849E-02
 11
3.095223
 21
-1.904964E-03
  0
LINE
  8
Layer0$C$L0
 10
3.365738
 20
0.268610
 11
3.308421
 21
0.211293
  0
LINE
  8
Layer0$C$L0
 10
3.159372
 20
8.345718E-02
 11
3.074009
 21
-1.904964E-03
  0
LINE
  8
Layer0$C$L0
 10
3.344524
 20
0.268610
 11
3.308421
 21
0.232506
  0
LINE
  8
Layer0$C$L0
 10
3.185587
 20
0.130886
 11
3.052796
 21
-1.904964E-03
  0
LINE
  8
Layer0$C$L0
 10
3.323311
 20
0.268610
 11
3.308421
 21
0.253720
  0
LINE
  8
Layer0$C$L0
 10
3.211803
 20
0.178315
 11
3.031583
 21
-1.904964E-03
  0
LINE
  8
Layer0$C$L0
 10
3.238018
 20
0.225743
 11
3.010370
 21
-1.904964E-03
  0
LINE
  8
Layer0$C$L0
 10
3.259672
 20
0.268610
 11
2.989157
 21
-1.904964E-03
  0
LINE
  8
Layer0$C$L0
 10
3.238458
 20
0.268610
 11
2.971892
 21
2.043703E-03
  0
LINE
  8
Layer0$C$L0
 10
3.046818
 20
9.818280E-02
 11
2.964775
 21
1.613944E-02
  0
LINE
  8
Layer0$C$L0
 10
3.217245
 20
0.268610
 11
3.046821
 21
9.818537E-02
  0
LINE
  8
Layer0$C$L0
 10
3.039726
 20
0.112304
 11
2.957657
 21
3.023519E-02
  0
LINE
  8
Layer0$C$L0
 10
3.196032
 20
0.268610
 11
3.060020
 21
0.132598
  0
LINE
  8
Layer0$C$L0
 10
3.032635
 20
0.126426
 11
2.950540
 21
4.433093E-02
  0
LINE
  8
Layer0$C$L0
 10
3.174819
 20
0.268610
 11
3.073219
 21
0.167010
  0
LINE
  8
Layer0$C$L0
 10
3.025543
 20
0.140547
 11
2.943422
 21
5.842667E-02
  0
LINE
  8
Layer0$C$L0
 10
3.153606
 20
0.268610
 11
3.086419
 21
0.201423
  0
LINE
  8
Layer0$C$L0
 10
3.018451
 20
0.154669
 11
2.936305
 21
7.252241E-02
  0
LINE
  8
Layer0$C$L0
 10
3.132392
 20
0.268610
 11
3.099618
 21
0.235836
  0
LINE
  8
Layer0$C$L0
 10
3.011360
 20
0.168791
 11
2.929187
 21
8.661815E-02
  0
LINE
  8
Layer0$C$L0
 10
3.004268
 20
0.182912
 11
2.922070
 21
0.100714
  0
LINE
  8
Layer0$C$L0
 10
2.825578
 20
2.543543E-02
 11
2.798238
 21
-1.904964E-03
  0
LINE
  8
Layer0$C$L0
 10
2.997177
 20
0.197034
 11
2.914953
 21
0.114810
  0
LINE
  8
Layer0$C$L0
 10
2.845809
 20
6.687976E-02
 11
2.777025
 21
-1.904964E-03
  0
LINE
  8
Layer0$C$L0
 10
2.990085
 20
0.211155
 11
2.907835
 21
0.128905
  0
LINE
  8
Layer0$C$L0
 10
2.866040
 20
0.108324
 11
2.755811
 21
-1.904964E-03
  0
LINE
  8
Layer0$C$L0
 10
2.982993
 20
0.225277
 11
2.900717
 21
0.143001
  0
LINE
  8
Layer0$C$L0
 10
2.886272
 20
0.149768
 11
2.734598
 21
-1.904964E-03
  0
LINE
  8
Layer0$C$L0
 10
2.975902
 20
0.239398
 11
2.893600
 21
0.157097
  0
LINE
  8
Layer0$C$L0
 10
2.968810
 20
0.253520
 11
2.713385
 21
-1.904964E-03
  0
LINE
  8
Layer0$C$L0
 10
2.961718
 20
0.267641
 11
2.692172
 21
-1.904964E-03
  0
LINE
  8
Layer0$C$L0
 10
2.941474
 20
0.268610
 11
2.672283
 21
-5.807794E-04
  0
LINE
  8
Layer0$C$L0
 10
2.920260
 20
0.268610
 11
2.664698
 21
1.304719E-02
  0
LINE
  8
Layer0$C$L0
 10
2.735678
 20
0.105241
 11
2.657112
 21
2.667516E-02
  0
LINE
  8
Layer0$C$L0
 10
2.899047
 20
0.268610
 11
2.747570
 21
0.117133
  0
LINE
  8
Layer0$C$L0
 10
2.729798
 20
0.120574
 11
2.649527
 21
4.030313E-02
  0
LINE
  8
Layer0$C$L0
 10
2.877834
 20
0.268610
 11
2.767516
 21
0.158292
  0
LINE
  8
Layer0$C$L0
 10
2.723917
 20
0.135906
 11
2.641942
 21
5.393109E-02
  0
LINE
  8
Layer0$C$L0
 10
2.856621
 20
0.268610
 11
2.787461
 21
0.199450
  0
LINE
  8
Layer0$C$L0
 10
2.718036
 20
0.151239
 11
2.634357
 21
6.755906E-02
  0
LINE
  8
Layer0$C$L0
 10
2.835408
 20
0.268610
 11
2.807407
 21
0.240609
  0
LINE
  8
Layer0$C$L0
 10
2.712156
 20
0.166571
 11
2.626771
 21
8.118702E-02
  0
LINE
  8
Layer0$C$L0
 10
2.706275
 20
0.181904
 11
2.619186
 21
9.481499E-02
  0
LINE
  8
Layer0$C$L0
 10
2.700394
 20
0.197236
 11
2.611601
 21
0.108443
  0
LINE
  8
Layer0$C$L0
 10
2.488582
 20
6.637473E-03
 11
2.480040
 21
-1.904964E-03
  0
LINE
  8
Layer0$C$L0
 10
2.694514
 20
0.212569
 11
2.604016
 21
0.122071
  0
LINE
  8
Layer0$C$L0
 10
2.480889
 20
2.015780E-02
 11
2.458827
 21
-1.904964E-03
  0
LINE
  8
Layer0$C$L0
 10
2.688633
 20
0.227902
 11
2.596431
 21
0.135699
  0
LINE
  8
Layer0$C$L0
 10
2.476180
 20
3.666124E-02
 11
2.437613
 21
-1.904964E-03
  0
LINE
  8
Layer0$C$L0
 10
2.682753
 20
0.243234
 11
2.588845
 21
0.149327
  0
LINE
  8
Layer0$C$L0
 10
2.474961
 20
5.665585E-02
 11
2.416400
 21
-1.904964E-03
  0
LINE
  8
Layer0$C$L0
 10
2.676872
 20
0.258567
 11
2.581260
 21
0.162955
  0
LINE
  8
Layer0$C$L0
 10
2.474961
 20
7.786906E-02
 11
2.395187
 21
-1.904964E-03
  0
LINE
  8
Layer0$C$L0
 10
2.665702
 20
0.268610
 11
2.573675
 21
0.176583
  0
LINE
  8
Layer0$C$L0
 10
2.474961
 20
9.908226E-02
 11
2.373974
 21
-1.904964E-03
  0
LINE
  8
Layer0$C$L0
 10
2.644489
 20
0.268610
 11
2.566090
 21
0.190211
  0
LINE
  8
Layer0$C$L0
 10
2.474961
 20
0.120295
 11
2.352761
 21
-1.904964E-03
  0
LINE
  8
Layer0$C$L0
 10
2.623276
 20
0.268610
 11
2.558504
 21
0.203839
  0
LINE
  8
Layer0$C$L0
 10
2.474961
 20
0.141509
 11
2.341056
 21
7.603255E-03
  0
LINE
  8
Layer0$C$L0
 10
2.602062
 20
0.268610
 11
2.550919
 21
0.217467
  0
LINE
  8
Layer0$C$L0
 10
2.474961
 20
0.162722
 11
2.334127
 21
2.188834E-02
  0
LINE
  8
Layer0$C$L0
 10
2.580849
 20
0.268610
 11
2.543334
 21
0.231095
  0
LINE
  8
Layer0$C$L0
 10
2.474423
 20
0.183397
 11
2.309371
 21
1.834554E-02
  0
LINE
  8
Layer0$C$L0
 10
2.559636
 20
0.268610
 11
2.535749
 21
0.244723
  0
LINE
  8
Layer0$C$L0
 10
2.470280
 20
0.200467
 11
2.273907
 21
4.094074E-03
  0
LINE
  8
Layer0$C$L0
 10
2.538423
 20
0.268610
 11
2.528163
 21
0.258351
  0
LINE
  8
Layer0$C$L0
 10
2.463715
 20
0.215115
 11
2.246341
 21
-2.258229E-03
  0
LINE
  8
Layer0$C$L0
 10
2.287645
 20
6.025879E-02
 11
2.221704
 21
-5.682634E-03
  0
LINE
  8
Layer0$C$L0
 10
2.455273
 20
0.227887
 11
2.320870
 21
9.348347E-02
  0
LINE
  8
Layer0$C$L0
 10
2.257690
 20
5.151713E-02
 11
2.198733
 21
-7.440345E-03
  0
LINE
  8
Layer0$C$L0
 10
2.444896
 20
0.238723
 11
2.322994
 21
0.116821
  0
LINE
  8
Layer0$C$L0
 10
2.234535
 20
4.957470E-02
 11
2.176969
 21
-7.990595E-03
  0
LINE
  8
Layer0$C$L0
 10
2.432499
 20
0.247540
 11
2.308084
 21
0.123124
  0
LINE
  8
Layer0$C$L0
 10
2.214694
 20
5.094712E-02
 11
2.156170
 21
-7.577075E-03
  0
LINE
  8
Layer0$C$L0
 10
2.418497
 20
0.254750
 11
2.281286
 21
0.117539
  0
LINE
  8
Layer0$C$L0
 10
2.198405
 20
5.587134E-02
 11
2.136378
 21
-6.155835E-03
  0
LINE
  8
Layer0$C$L0
 10
2.320669
 20
0.178136
 11
2.255377
 21
0.112843
  0
LINE
  8
Layer0$C$L0
 10
2.403146
 20
0.260613
 11
2.322865
 21
0.180332
  0
LINE
  8
Layer0$C$L0
 10
2.186731
 20
6.541029E-02
 11
2.117682
 21
-3.638454E-03
  0
LINE
  8
Layer0$C$L0
 10
2.292711
 20
0.171391
 11
2.228851
 21
0.107530
  0
LINE
  8
Layer0$C$L0
 10
2.386526
 20
0.265206
 11
2.318686
 21
0.197366
  0
LINE
  8
Layer0$C$L0
 10
2.184497
 20
8.439031E-02
 11
2.100223
 21
1.162239E-04
  0
LINE
  8
Layer0$C$L0
 10
2.266145
 20
0.166038
 11
2.197304
 21
9.719721E-02
  0
LINE
  8
Layer0$C$L0
 10
2.368665
 20
0.268558
 11
2.307539
 21
0.207432
  0
LINE
  8
Layer0$C$L0
 10
2.240910
 20
0.162016
 11
2.084132
 21
5.238494E-03
  0
LINE
  8
Layer0$C$L0
 10
2.349780
 20
0.270886
 11
2.290735
 21
0.211841
  0
LINE
  8
Layer0$C$L0
 10
2.216072
 20
0.158391
 11
2.069463
 21
1.178205E-02
  0
LINE
  8
Layer0$C$L0
 10
2.330147
 20
0.272466
 11
2.270805
 21
0.213124
  0
LINE
  8
Layer0$C$L0
 10
2.191476
 20
0.155008
 11
2.056265
 21
1.979748E-02
  0
LINE
  8
Layer0$C$L0
 10
2.310033
 20
0.273565
 11
2.248919
 21
0.212451
  0
LINE
  8
Layer0$C$L0
 10
2.166950
 20
0.151696
 11
2.044740
 21
2.948603E-02
  0
LINE
  8
Layer0$C$L0
 10
2.289548
 20
0.274294
 11
2.224107
 21
0.208853
  0
LINE
  8
Layer0$C$L0
 10
2.142162
 20
0.148121
 11
2.035265
 21
4.122386E-02
  0
LINE
  8
Layer0$C$L0
 10
2.268742
 20
0.274700
 11
2.175930
 21
0.181889
  0
LINE
  8
Layer0$C$L0
 10
2.116389
 20
0.143561
 11
2.028838
 21
5.600988E-02
  0
LINE
  8
Layer0$C$L0
 10
2.247606
 20
0.274778
 11
2.156108
 21
0.183280
  0
LINE
  8
Layer0$C$L0
 10
1.953205
 20
1.590154E-03
 11
1.949710
 21
-1.904964E-03
  0
LINE
  8
Layer0$C$L0
 10
2.087851
 20
0.136236
 11
2.027278
 21
7.566302E-02
  0
LINE
  8
Layer0$C$L0
 10
2.226074
 20
0.274459
 11
2.136287
 21
0.184672
  0
LINE
  8
Layer0$C$L0
 10
1.953205
 20
2.280336E-02
 11
1.928497
 21
-1.904964E-03
  0
LINE
  8
Layer0$C$L0
 10
2.203915
 20
0.273514
 11
2.116465
 21
0.186064
  0
LINE
  8
Layer0$C$L0
 10
1.953205
 20
4.401656E-02
 11
1.907283
 21
-1.904964E-03
  0
LINE
  8
Layer0$C$L0
 10
2.180969
 20
0.271781
 11
2.096644
 21
0.187455
  0
LINE
  8
Layer0$C$L0
 10
1.953205
 20
6.522977E-02
 11
1.886070
 21
-1.904964E-03
  0
LINE
  8
Layer0$C$L0
 10
2.157002
 20
0.269027
 11
2.076822
 21
0.188847
  0
LINE
  8
Layer0$C$L0
 10
1.953205
 20
8.644297E-02
 11
1.864857
 21
-1.904964E-03
  0
LINE
  8
Layer0$C$L0
 10
2.131268
 20
0.264506
 11
2.057000
 21
0.190238
  0
LINE
  8
Layer0$C$L0
 10
1.953205
 20
0.107656
 11
1.843644
 21
-1.904964E-03
  0
LINE
  8
Layer0$C$L0
 10
2.100227
 20
0.254678
 11
2.040437
 21
0.194888
  0
LINE
  8
Layer0$C$L0
 10
1.953205
 20
0.128869
 11
1.822430
 21
-1.904964E-03
  0
LINE
  8
Layer0$C$L0
 10
1.953205
 20
0.150083
 11
1.801217
 21
-1.904964E-03
  0
LINE
  8
Layer0$C$L0
 10
1.953231
 20
0.171322
 11
1.796894
 21
1.498498E-02
  0
LINE
  8
Layer0$C$L0
 10
1.951751
 20
0.191055
 11
1.796894
 21
3.619819E-02
  0
LINE
  8
Layer0$C$L0
 10
1.947440
 20
0.207958
 11
1.796894
 21
5.741139E-02
  0
LINE
  8
Layer0$C$L0
 10
1.940897
 20
0.222627
 11
1.796894
 21
7.862460E-02
  0
LINE
  8
Layer0$C$L0
 10
1.932145
 20
0.235089
 11
1.796894
 21
9.983780E-02
  0
LINE
  8
Layer0$C$L0
 10
1.679598
 20
3.754783E-03
 11
1.673938
 21
-1.904964E-03
  0
LINE
  8
Layer0$C$L0
 10
1.921379
 20
0.245536
 11
1.796894
 21
0.121051
  0
LINE
  8
Layer0$C$L0
 10
1.679598
 20
2.496799E-02
 11
1.652725
 21
-1.904964E-03
  0
LINE
  8
Layer0$C$L0
 10
1.908842
 20
0.254213
 11
1.796894
 21
0.142264
  0
LINE
  8
Layer0$C$L0
 10
1.679598
 20
4.618119E-02
 11
1.631512
 21
-1.904964E-03
  0
LINE
  8
Layer0$C$L0
 10
1.894673
 20
0.261256
 11
1.795379
 21
0.161962
  0
LINE
  8
Layer0$C$L0
 10
1.679598
 20
6.739439E-02
 11
1.610299
 21
-1.904964E-03
  0
LINE
  8
Layer0$C$L0
 10
1.879014
 20
0.266810
 11
1.788909
 21
0.176705
  0
LINE
  8
Layer0$C$L0
 10
1.679598
 20
8.860759E-02
 11
1.589085
 21
-1.904964E-03
  0
LINE
  8
Layer0$C$L0
 10
1.861906
 20
0.270915
 11
1.777364
 21
0.186374
  0
LINE
  8
Layer0$C$L0
 10
1.679598
 20
0.109821
 11
1.567872
 21
-1.904964E-03
  0
LINE
  8
Layer0$C$L0
 10
1.843319
 20
0.273542
 11
1.761586
 21
0.191809
  0
LINE
  8
Layer0$C$L0
 10
1.679533
 20
0.130969
 11
1.546659
 21
-1.904964E-03
  0
LINE
  8
Layer0$C$L0
 10
1.823268
 20
0.274704
 11
1.742037
 21
0.193473
  0
LINE
  8
Layer0$C$L0
 10
1.682837
 20
0.155486
 11
1.525446
 21
-1.904964E-03
  0
LINE
  8
Layer0$C$L0
 10
1.801841
 20
0.274490
 11
1.717155
 21
0.189804
  0
LINE
  8
Layer0$C$L0
 10
1.778804
 20
0.272667
 11
1.523945
 21
1.780741E-02
  0
LINE
  8
Layer0$C$L0
 10
1.753045
 20
0.268121
 11
1.523945
 21
3.902061E-02
  0
LINE
  8
Layer0$C$L0
 10
1.721109
 20
0.257398
 11
1.523945
 21
6.023382E-02
  0
LINE
  8
Layer0$C$L0
 10
1.679598
 20
0.237100
 11
1.523945
 21
8.144702E-02
  0
LINE
  8
Layer0$C$L0
 10
1.679598
 20
0.258313
 11
1.523945
 21
0.102660
  0
LINE
  8
Layer0$C$L0
 10
1.679598
 20
0.279526
 11
1.523945
 21
0.123873
  0
LINE
  8
Layer0$C$L0
 10
1.679598
 20
0.300740
 11
1.523945
 21
0.145087
  0
LINE
  8
Layer0$C$L0
 10
1.437023
 20
7.937840E-02
 11
1.387895
 21
3.024982E-02
  0
LINE
  8
Layer0$C$L0
 10
1.679598
 20
0.321953
 11
1.523945
 21
0.166300
  0
LINE
  8
Layer0$C$L0
 10
1.446854
 20
0.110422
 11
1.348406
 21
1.197446E-02
  0
LINE
  8
Layer0$C$L0
 10
1.679598
 20
0.343166
 11
1.523945
 21
0.187513
  0
LINE
  8
Layer0$C$L0
 10
1.446494
 20
0.131275
 11
1.318537
 21
3.318472E-03
  0
LINE
  8
Layer0$C$L0
 10
1.679598
 20
0.364379
 11
1.523945
 21
0.208726
  0
LINE
  8
Layer0$C$L0
 10
1.441996
 20
0.147991
 11
1.292193
 21
-1.812714E-03
  0
LINE
  8
Layer0$C$L0
 10
1.665572
 20
0.371567
 11
1.523945
 21
0.229939
  0
LINE
  8
Layer0$C$L0
 10
1.434809
 20
0.162017
 11
1.267812
 21
-4.980620E-03
  0
LINE
  8
Layer0$C$L0
 10
1.644359
 20
0.371567
 11
1.523945
 21
0.251153
  0
LINE
  8
Layer0$C$L0
 10
1.425646
 20
0.174067
 11
1.244679
 21
-6.900094E-03
  0
LINE
  8
Layer0$C$L0
 10
1.623146
 20
0.371567
 11
1.523945
 21
0.272366
  0
LINE
  8
Layer0$C$L0
 10
1.414840
 20
0.184474
 11
1.222458
 21
-7.907831E-03
  0
LINE
  8
Layer0$C$L0
 10
1.601933
 20
0.371567
 11
1.523945
 21
0.293579
  0
LINE
  8
Layer0$C$L0
 10
1.402624
 20
0.193471
 11
1.200905
 21
-8.247196E-03
  0
LINE
  8
Layer0$C$L0
 10
1.580720
 20
0.371567
 11
1.523945
 21
0.314792
  0
LINE
  8
Layer0$C$L0
 10
1.389199
 20
0.201260
 11
1.179853
 21
-8.086829E-03
  0
LINE
  8
Layer0$C$L0
 10
1.559506
 20
0.371567
 11
1.523945
 21
0.336005
  0
LINE
  8
Layer0$C$L0
 10
1.234736
 20
6.801020E-02
 11
1.159258
 21
-7.468002E-03
  0
LINE
  8
Layer0$C$L0
 10
1.374811
 20
0.208085
 11
1.277726
 21
0.111000
  0
LINE
  8
Layer0$C$L0
 10
1.538293
 20
0.371567
 11
1.523945
 21
0.357219
  0
LINE
  8
Layer0$C$L0
 10
1.210823
 20
6.531045E-02
 11
1.139128
 21
-6.384597E-03
  0
LINE
  8
Layer0$C$L0
 10
1.359614
 20
0.214101
 11
1.268801
 21
0.123288
  0
LINE
  8
Layer0$C$L0
 10
1.425743
 20
0.280229
 11
1.411442
 21
0.265929
  0
LINE
  8
Layer0$C$L0
 10
1.189794
 20
6.549453E-02
 11
1.119517
 21
-4.782636E-03
  0
LINE
  8
Layer0$C$L0
 10
1.343673
 20
0.219374
 11
1.255972
 21
0.131673
  0
LINE
  8
Layer0$C$L0
 10
1.419894
 20
0.295594
 11
1.389371
 21
0.265071
  0
LINE
  8
Layer0$C$L0
 10
1.170818
 20
6.773141E-02
 11
1.100483
 21
-2.603690E-03
  0
LINE
  8
Layer0$C$L0
 10
1.327101
 20
0.224015
 11
1.240507
 21
0.137420
  0
LINE
  8
Layer0$C$L0
 10
1.412285
 20
0.309198
 11
1.367299
 21
0.264213
  0
LINE
  8
Layer0$C$L0
 10
1.153921
 20
7.204732E-02
 11
1.082084
 21
2.109188E-04
  0
LINE
  8
Layer0$C$L0
 10
1.310048
 20
0.228175
 11
1.223707
 21
0.141834
  0
LINE
  8
Layer0$C$L0
 10
1.403096
 20
0.321222
 11
1.345228
 21
0.263355
  0
LINE
  8
Layer0$C$L0
 10
1.139084
 20
7.842416E-02
 11
1.064404
 21
3.744283E-03
  0
LINE
  8
Layer0$C$L0
 10
1.292635
 20
0.231975
 11
1.206097
 21
0.145437
  0
LINE
  8
Layer0$C$L0
 10
1.392442
 20
0.331782
 11
1.323157
 21
0.262496
  0
LINE
  8
Layer0$C$L0
 10
1.126404
 20
8.695740E-02
 11
1.047535
 21
8.088051E-03
  0
LINE
  8
Layer0$C$L0
 10
1.274947
 20
0.235500
 11
1.188007
 21
0.148560
  0
LINE
  8
Layer0$C$L0
 10
1.380366
 20
0.340919
 11
1.301085
 21
0.261638
  0
LINE
  8
Layer0$C$L0
 10
1.116169
 20
9.793525E-02
 11
1.031570
 21
1.333580E-02
  0
LINE
  8
Layer0$C$L0
 10
1.257036
 20
0.238803
 11
1.169704
 21
0.151470
  0
LINE
  8
Layer0$C$L0
 10
1.367002
 20
0.348768
 11
1.279014
 21
0.260780
  0
LINE
  8
Layer0$C$L0
 10
1.108667
 20
0.111647
 11
1.016708
 21
1.968794E-02
  0
LINE
  8
Layer0$C$L0
 10
1.238927
 20
0.241906
 11
1.151439
 21
0.154418
  0
LINE
  8
Layer0$C$L0
 10
1.352457
 20
0.355437
 11
1.263794
 21
0.266774
  0
LINE
  8
Layer0$C$L0
 10
1.103794
 20
0.127986
 11
1.003093
 21
2.728599E-02
  0
LINE
  8
Layer0$C$L0
 10
1.220631
 20
0.244824
 11
1.133367
 21
0.157560
  0
LINE
  8
Layer0$C$L0
 10
1.336837
 20
0.361030
 11
1.256566
 21
0.280759
  0
LINE
  8
Layer0$C$L0
 10
1.082227
 20
0.127633
 11
0.990561
 21
3.596697E-02
  0
LINE
  8
Layer0$C$L0
 10
1.202209
 20
0.247615
 11
1.115609
 21
0.161015
  0
LINE
  8
Layer0$C$L0
 10
1.320276
 20
0.365682
 11
1.246284
 21
0.291690
  0
LINE
  8
Layer0$C$L0
 10
1.060091
 20
0.126710
 11
0.979060
 21
4.567884E-02
  0
LINE
  8
Layer0$C$L0
 10
1.183753
 20
0.250372
 11
1.098218
 21
0.164837
  0
LINE
  8
Layer0$C$L0
 10
1.302859
 20
0.369478
 11
1.232979
 21
0.299598
  0
LINE
  8
Layer0$C$L0
 10
1.037955
 20
0.125787
 11
0.968616
 21
5.644819E-02
  0
LINE
  8
Layer0$C$L0
 10
1.165537
 20
0.253370
 11
1.081214
 21
0.169046
  0
LINE
  8
Layer0$C$L0
 10
1.284657
 20
0.372490
 11
1.216942
 21
0.304774
  0
LINE
  8
Layer0$C$L0
 10
1.015819
 20
0.124865
 11
0.959305
 21
6.835070E-02
  0
LINE
  8
Layer0$C$L0
 10
1.148151
 20
0.257196
 11
1.064651
 21
0.173696
  0
LINE
  8
Layer0$C$L0
 10
1.265738
 20
0.374783
 11
1.198563
 21
0.307608
  0
LINE
  8
Layer0$C$L0
 10
0.993683
 20
0.123942
 11
0.951303
 21
8.156210E-02
  0
LINE
  8
Layer0$C$L0
 10
1.132741
 20
0.263000
 11
1.048608
 21
0.178867
  0
LINE
  8
Layer0$C$L0
 10
1.246157
 20
0.376416
 11
1.178070
 21
0.308329
  0
LINE
  8
Layer0$C$L0
 10
0.971547
 20
0.123019
 11
0.944898
 21
9.636942E-02
  0
LINE
  8
Layer0$C$L0
 10
1.121636
 20
0.273108
 11
1.033211
 21
0.184683
  0
LINE
  8
Layer0$C$L0
 10
1.225957
 20
0.377429
 11
1.154872
 21
0.306344
  0
LINE
  8
Layer0$C$L0
 10
0.949411
 20
0.122096
 11
0.940339
 21
0.113024
  0
LINE
  8
Layer0$C$L0
 10
1.205192
 20
0.377877
 11
1.018608
 21
0.191293
  0
LINE
  8
Layer0$C$L0
 10
1.183925
 20
0.377824
 11
1.004942
 21
0.198840
  0
LINE
  8
Layer0$C$L0
 10
1.162128
 20
0.377240
 11
0.992394
 21
0.207505
  0
LINE
  8
Layer0$C$L0
 10
1.139679
 20
0.376004
 11
0.981232
 21
0.217557
  0
LINE
  8
Layer0$C$L0
 10
1.116341
 20
0.373879
 11
0.971768
 21
0.229306
  0
LINE
  8
Layer0$C$L0
 10
1.091647
 20
0.370398
 11
0.964499
 21
0.243250
  0
LINE
  8
Layer0$C$L0
 10
1.064521
 20
0.364486
 11
0.960357
 21
0.260321
  0
LINE
  8
Layer0$C$L0
 10
1.032298
 20
0.353476
 11
0.961449
 21
0.282626
  0
ENDBLK
  8
Layer0$C$L0
  0
BLOCK
  8
Layer0$C$L0
  2
*X1
 70
     1
 10
0.000000
 20
0.000000
  0
LINE
  8
Layer0$C$L0
 10
3.531619
 20
0.455705
 11
3.543748
 21
0.467833
  0
LINE
  8
Layer0$C$L0
 10
3.543748
 20
0.489047
 11
3.510406
 21
0.455705
  0
LINE
  8
Layer0$C$L0
 10
3.489193
 20
0.455705
 11
3.543748
 21
0.510260
  0
LINE
  8
Layer0$C$L0
 10
3.538759
 20
0.526484
 11
3.467980
 21
0.455705
  0
LINE
  8
Layer0$C$L0
 10
3.446767
 20
0.455705
 11
3.517546
 21
0.526484
  0
LINE
  8
Layer0$C$L0
 10
3.496333
 20
0.526484
 11
3.425553
 21
0.455705
  0
LINE
  8
Layer0$C$L0
 10
3.404340
 20
0.455705
 11
3.475119
 21
0.526484
  0
LINE
  8
Layer0$C$L0
 10
3.453906
 20
0.526484
 11
3.383127
 21
0.455705
  0
LINE
  8
Layer0$C$L0
 10
3.361914
 20
0.455705
 11
3.432693
 21
0.526484
  0
LINE
  8
Layer0$C$L0
 10
3.411480
 20
0.526484
 11
3.340701
 21
0.455705
  0
LINE
  8
Layer0$C$L0
 10
3.319487
 20
0.455705
 11
3.390267
 21
0.526484
  0
LINE
  8
Layer0$C$L0
 10
3.531370
 20
0.667587
 11
3.524912
 21
0.661130
  0
LINE
  8
Layer0$C$L0
 10
3.369053
 20
0.526484
 11
3.298274
 21
0.455705
  0
LINE
  8
Layer0$C$L0
 10
3.531370
 20
0.688801
 11
3.455499
 21
0.612930
  0
LINE
  8
Layer0$C$L0
 10
3.347840
 20
0.526484
 11
3.277061
 21
0.455705
  0
LINE
  8
Layer0$C$L0
 10
3.531370
 20
0.710014
 11
3.386086
 21
0.564730
  0
LINE
  8
Layer0$C$L0
 10
3.526364
 20
0.726221
 11
3.255848
 21
0.455705
  0
LINE
  8
Layer0$C$L0
 10
3.505151
 20
0.726221
 11
3.234635
 21
0.455705
  0
LINE
  8
Layer0$C$L0
 10
3.483938
 20
0.726221
 11
3.213421
 21
0.455705
  0
LINE
  8
Layer0$C$L0
 10
3.462724
 20
0.726221
 11
3.192208
 21
0.455705
  0
LINE
  8
Layer0$C$L0
 10
3.441511
 20
0.726221
 11
3.170995
 21
0.455705
  0
LINE
  8
Layer0$C$L0
 10
3.420298
 20
0.726221
 11
3.149782
 21
0.455705
  0
LINE
  8
Layer0$C$L0
 10
3.305610
 20
0.632746
 11
3.148126
 21
0.475262
  0
LINE
  8
Layer0$C$L0
 10
3.399085
 20
0.726221
 11
3.328305
 21
0.655441
  0
LINE
  8
Layer0$C$L0
 10
3.235513
 20
0.583862
 11
3.148126
 21
0.496475
  0
LINE
  8
Layer0$C$L0
 10
3.377872
 20
0.726221
 11
3.307091
 21
0.655441
  0
LINE
  8
Layer0$C$L0
 10
3.099456
 20
0.469019
 11
3.086142
 21
0.455705
  0
LINE
  8
Layer0$C$L0
 10
3.165416
 20
0.534978
 11
3.148126
 21
0.517689
  0
LINE
  8
Layer0$C$L0
 10
3.356658
 20
0.726221
 11
3.285878
 21
0.655441
  0
LINE
  8
Layer0$C$L0
 10
3.092606
 20
0.483382
 11
3.064929
 21
0.455705
  0
LINE
  8
Layer0$C$L0
 10
3.335445
 20
0.726221
 11
3.264665
 21
0.655441
  0
LINE
  8
Layer0$C$L0
 10
3.089457
 20
0.501446
 11
3.043716
 21
0.455705
  0
LINE
  8
Layer0$C$L0
 10
3.314232
 20
0.726221
 11
3.243452
 21
0.655441
  0
LINE
  8
Layer0$C$L0
 10
3.089039
 20
0.522241
 11
3.022503
 21
0.455705
  0
LINE
  8
Layer0$C$L0
 10
3.293019
 20
0.726221
 11
3.222239
 21
0.655441
  0
LINE
  8
Layer0$C$L0
 10
3.089039
 20
0.543455
 11
3.001289
 21
0.455705
  0
LINE
  8
Layer0$C$L0
 10
3.271805
 20
0.726221
 11
3.201025
 21
0.655441
  0
LINE
  8
Layer0$C$L0
 10
3.089039
 20
0.564668
 11
2.980076
 21
0.455705
  0
LINE
  8
Layer0$C$L0
 10
3.250592
 20
0.726221
 11
3.179812
 21
0.655441
  0
LINE
  8
Layer0$C$L0
 10
3.089039
 20
0.585881
 11
2.962459
 21
0.459301
  0
LINE
  8
Layer0$C$L0
 10
3.229379
 20
0.726221
 11
3.163189
 21
0.660031
  0
LINE
  8
Layer0$C$L0
 10
3.089039
 20
0.607094
 11
2.953958
 21
0.472013
  0
LINE
  8
Layer0$C$L0
 10
3.208166
 20
0.726221
 11
3.163189
 21
0.681244
  0
LINE
  8
Layer0$C$L0
 10
3.089039
 20
0.628307
 11
2.949028
 21
0.488296
  0
LINE
  8
Layer0$C$L0
 10
3.186953
 20
0.726221
 11
3.163189
 21
0.702457
  0
LINE
  8
Layer0$C$L0
 10
3.087374
 20
0.647856
 11
2.905856
 21
0.466338
  0
LINE
  8
Layer0$C$L0
 10
3.165739
 20
0.726221
 11
3.163189
 21
0.723671
  0
LINE
  8
Layer0$C$L0
 10
3.082223
 20
0.663918
 11
2.875689
 21
0.457384
  0
LINE
  8
Layer0$C$L0
 10
3.075031
 20
0.677939
 11
2.850067
 21
0.452975
  0
LINE
  8
Layer0$C$L0
 10
2.887318
 20
0.511440
 11
2.826504
 21
0.450625
  0
LINE
  8
Layer0$C$L0
 10
3.065956
 20
0.690077
 11
2.940107
 21
0.564228
  0
LINE
  8
Layer0$C$L0
 10
2.862134
 20
0.507468
 11
2.804351
 21
0.449685
  0
LINE
  8
Layer0$C$L0
 10
3.054860
 20
0.700195
 11
2.938343
 21
0.583678
  0
LINE
  8
Layer0$C$L0
 10
2.841146
 20
0.507693
 11
2.783260
 21
0.449808
  0
LINE
  8
Layer0$C$L0
 10
3.041848
 20
0.708395
 11
2.910912
 21
0.577459
  0
LINE
  8
Layer0$C$L0
 10
2.823569
 20
0.511330
 11
2.763187
 21
0.450948
  0
LINE
  8
Layer0$C$L0
 10
3.027342
 20
0.715103
 11
2.884577
 21
0.572337
  0
LINE
  8
Layer0$C$L0
 10
2.810289
 20
0.519263
 11
2.744230
 21
0.453204
  0
LINE
  8
Layer0$C$L0
 10
2.922885
 20
0.631860
 11
2.858382
 21
0.567356
  0
LINE
  8
Layer0$C$L0
 10
3.011510
 20
0.720484
 11
2.942942
 21
0.651916
  0
LINE
  8
Layer0$C$L0
 10
2.803451
 20
0.533638
 11
2.726509
 21
0.456697
  0
LINE
  8
Layer0$C$L0
 10
2.895519
 20
0.625706
 11
2.829888
 21
0.560075
  0
LINE
  8
Layer0$C$L0
 10
2.994370
 20
0.724557
 11
2.934641
 21
0.664828
  0
LINE
  8
Layer0$C$L0
 10
2.869720
 20
0.621120
 11
2.710175
 21
0.461575
  0
LINE
  8
Layer0$C$L0
 10
2.976031
 20
0.727431
 11
2.920654
 21
0.672054
  0
LINE
  8
Layer0$C$L0
 10
2.844688
 20
0.617302
 11
2.695292
 21
0.467906
  0
LINE
  8
Layer0$C$L0
 10
2.956773
 20
0.729386
 11
2.902567
 21
0.675181
  0
LINE
  8
Layer0$C$L0
 10
2.819920
 20
0.613747
 11
2.681897
 21
0.475724
  0
LINE
  8
Layer0$C$L0
 10
2.936890
 20
0.730716
 11
2.881878
 21
0.675705
  0
LINE
  8
Layer0$C$L0
 10
2.795320
 20
0.610360
 11
2.670150
 21
0.485190
  0
LINE
  8
Layer0$C$L0
 10
2.916583
 20
0.731623
 11
2.859189
 21
0.674229
  0
LINE
  8
Layer0$C$L0
 10
2.770564
 20
0.606817
 11
2.660382
 21
0.496635
  0
LINE
  8
Layer0$C$L0
 10
2.895925
 20
0.732178
 11
2.831669
 21
0.667922
  0
LINE
  8
Layer0$C$L0
 10
2.745062
 20
0.602528
 11
2.653432
 21
0.510898
  0
LINE
  8
Layer0$C$L0
 10
2.874931
 20
0.732397
 11
2.787682
 21
0.645149
  0
LINE
  8
Layer0$C$L0
 10
2.717311
 20
0.595991
 11
2.650939
 21
0.529618
  0
LINE
  8
Layer0$C$L0
 10
2.853569
 20
0.732248
 11
2.767890
 21
0.646569
  0
LINE
  8
Layer0$C$L0
 10
2.679499
 20
0.579392
 11
2.660540
 21
0.560433
  0
LINE
  8
Layer0$C$L0
 10
2.831649
 20
0.731542
 11
2.748097
 21
0.647990
  0
LINE
  8
Layer0$C$L0
 10
2.808950
 20
0.730056
 11
2.728305
 21
0.649411
  0
LINE
  8
Layer0$C$L0
 10
2.785289
 20
0.727608
 11
2.708512
 21
0.650831
  0
LINE
  8
Layer0$C$L0
 10
2.760115
 20
0.723648
 11
2.688720
 21
0.652252
  0
LINE
  8
Layer0$C$L0
 10
2.730878
 20
0.715624
 11
2.668927
 21
0.653673
  0
LINE
  8
Layer0$C$L0
 10
2.470850
 20
0.476809
 11
2.449746
 21
0.455705
  0
LINE
  8
Layer0$C$L0
 10
2.470850
 20
0.498022
 11
2.428533
 21
0.455705
  0
LINE
  8
Layer0$C$L0
 10
2.470850
 20
0.519235
 11
2.407320
 21
0.455705
  0
LINE
  8
Layer0$C$L0
 10
2.470850
 20
0.540448
 11
2.386106
 21
0.455705
  0
LINE
  8
Layer0$C$L0
 10
2.598834
 20
0.668433
 11
2.576546
 21
0.646144
  0
LINE
  8
Layer0$C$L0
 10
2.470967
 20
0.561779
 11
2.364893
 21
0.455705
  0
LINE
  8
Layer0$C$L0
 10
2.628161
 20
0.718973
 11
2.559188
 21
0.649999
  0
LINE
  8
Layer0$C$L0
 10
2.473558
 20
0.585583
 11
2.343680
 21
0.455705
  0
LINE
  8
Layer0$C$L0
 10
2.612037
 20
0.724062
 11
2.539853
 21
0.651878
  0
LINE
  8
Layer0$C$L0
 10
2.481300
 20
0.614538
 11
2.322467
 21
0.455705
  0
LINE
  8
Layer0$C$L0
 10
2.594993
 20
0.728231
 11
2.514487
 21
0.647725
  0
LINE
  8
Layer0$C$L0
 10
2.576754
 20
0.731206
 11
2.317961
 21
0.472412
  0
LINE
  8
Layer0$C$L0
 10
2.556730
 20
0.732394
 11
2.317961
 21
0.493625
  0
LINE
  8
Layer0$C$L0
 10
2.533939
 20
0.730816
 11
2.317961
 21
0.514839
  0
LINE
  8
Layer0$C$L0
 10
2.503962
 20
0.722053
 11
2.317961
 21
0.536052
  0
LINE
  8
Layer0$C$L0
 10
2.460386
 20
0.699690
 11
2.317961
 21
0.557265
  0
LINE
  8
Layer0$C$L0
 10
2.460386
 20
0.720903
 11
2.317961
 21
0.578478
  0
LINE
  8
Layer0$C$L0
 10
2.444490
 20
0.726221
 11
2.317961
 21
0.599692
  0
LINE
  8
Layer0$C$L0
 10
2.423277
 20
0.726221
 11
2.317961
 21
0.620905
  0
LINE
  8
Layer0$C$L0
 10
2.402064
 20
0.726221
 11
2.317961
 21
0.642118
  0
LINE
  8
Layer0$C$L0
 10
2.380851
 20
0.726221
 11
2.317961
 21
0.663331
  0
LINE
  8
Layer0$C$L0
 10
2.098712
 20
0.465295
 11
2.089122
 21
0.455705
  0
LINE
  8
Layer0$C$L0
 10
2.359638
 20
0.726221
 11
2.317961
 21
0.684544
  0
LINE
  8
Layer0$C$L0
 10
2.098712
 20
0.486509
 11
2.067908
 21
0.455705
  0
LINE
  8
Layer0$C$L0
 10
2.338424
 20
0.726221
 11
2.317961
 21
0.705757
  0
LINE
  8
Layer0$C$L0
 10
2.098712
 20
0.507722
 11
2.046695
 21
0.455705
  0
LINE
  8
Layer0$C$L0
 10
2.098712
 20
0.528935
 11
2.025482
 21
0.455705
  0
LINE
  8
Layer0$C$L0
 10
2.098619
 20
0.550056
 11
2.004269
 21
0.455705
  0
LINE
  8
Layer0$C$L0
 10
2.243726
 20
0.695162
 11
2.196607
 21
0.648043
  0
LINE
  8
Layer0$C$L0
 10
2.099643
 20
0.572292
 11
1.983056
 21
0.455705
  0
LINE
  8
Layer0$C$L0
 10
2.248762
 20
0.721412
 11
2.178595
 21
0.651244
  0
LINE
  8
Layer0$C$L0
 10
2.103786
 20
0.597649
 11
1.961842
 21
0.455705
  0
LINE
  8
Layer0$C$L0
 10
2.232226
 20
0.726088
 11
2.157379
 21
0.651241
  0
LINE
  8
Layer0$C$L0
 10
2.214695
 20
0.729771
 11
1.945819
 21
0.460895
  0
LINE
  8
Layer0$C$L0
 10
2.195721
 20
0.732010
 11
1.945819
 21
0.482108
  0
LINE
  8
Layer0$C$L0
 10
2.174619
 20
0.732121
 11
1.945819
 21
0.503321
  0
LINE
  8
Layer0$C$L0
 10
2.149714
 20
0.728430
 11
1.945819
 21
0.524534
  0
LINE
  8
Layer0$C$L0
 10
2.088248
 20
0.688177
 11
1.945819
 21
0.545747
  0
LINE
  8
Layer0$C$L0
 10
2.088248
 20
0.709390
 11
1.945819
 21
0.566961
  0
LINE
  8
Layer0$C$L0
 10
2.083866
 20
0.726221
 11
1.945819
 21
0.588174
  0
LINE
  8
Layer0$C$L0
 10
1.853005
 20
0.516573
 11
1.825704
 21
0.489272
  0
LINE
  8
Layer0$C$L0
 10
2.062653
 20
0.726221
 11
1.945819
 21
0.609387
  0
LINE
  8
Layer0$C$L0
 10
1.833042
 20
0.517823
 11
1.782293
 21
0.467074
  0
LINE
  8
Layer0$C$L0
 10
2.041440
 20
0.726221
 11
1.945819
 21
0.630600
  0
LINE
  8
Layer0$C$L0
 10
1.813078
 20
0.519073
 11
1.752915
 21
0.458910
  0
LINE
  8
Layer0$C$L0
 10
1.874379
 20
0.580374
 11
1.859273
 21
0.565268
  0
LINE
  8
Layer0$C$L0
 10
2.020226
 20
0.726221
 11
1.945819
 21
0.651814
  0
LINE
  8
Layer0$C$L0
 10
1.793115
 20
0.520323
 11
1.727309
 21
0.454517
  0
LINE
  8
Layer0$C$L0
 10
1.873090
 20
0.600298
 11
1.838060
 21
0.565268
  0
LINE
  8
Layer0$C$L0
 10
1.999013
 20
0.726221
 11
1.945819
 21
0.673027
  0
LINE
  8
Layer0$C$L0
 10
1.773152
 20
0.521573
 11
1.703509
 21
0.451930
  0
LINE
  8
Layer0$C$L0
 10
1.869829
 20
0.618250
 11
1.816847
 21
0.565268
  0
LINE
  8
Layer0$C$L0
 10
1.977800
 20
0.726221
 11
1.945819
 21
0.694240
  0
LINE
  8
Layer0$C$L0
 10
1.753189
 20
0.522823
 11
1.680817
 21
0.450451
  0
LINE
  8
Layer0$C$L0
 10
1.864877
 20
0.634511
 11
1.795634
 21
0.565268
  0
LINE
  8
Layer0$C$L0
 10
1.956587
 20
0.726221
 11
1.945819
 21
0.715453
  0
LINE
  8
Layer0$C$L0
 10
1.733226
 20
0.524073
 11
1.658899
 21
0.449747
  0
LINE
  8
Layer0$C$L0
 10
1.858206
 20
0.649054
 11
1.774421
 21
0.565268
  0
LINE
  8
Layer0$C$L0
 10
1.713263
 20
0.525323
 11
1.637582
 21
0.449643
  0
LINE
  8
Layer0$C$L0
 10
1.849960
 20
0.662020
 11
1.753207
 21
0.565268
  0
LINE
  8
Layer0$C$L0
 10
1.675422
 20
0.508695
 11
1.616810
 21
0.450084
  0
LINE
  8
Layer0$C$L0
 10
1.840297
 20
0.673571
 11
1.731994
 21
0.565268
  0
LINE
  8
Layer0$C$L0
 10
1.651071
 20
0.505558
 11
1.596657
 21
0.451144
  0
LINE
  8
Layer0$C$L0
 10
1.829367
 20
0.683854
 11
1.710781
 21
0.565268
  0
LINE
  8
Layer0$C$L0
 10
1.630711
 20
0.506412
 11
1.577200
 21
0.452900
  0
LINE
  8
Layer0$C$L0
 10
1.817292
 20
0.692992
 11
1.689568
 21
0.565268
  0
LINE
  8
Layer0$C$L0
 10
1.613162
 20
0.510075
 11
1.558514
 21
0.455427
  0
LINE
  8
Layer0$C$L0
 10
1.713004
 20
0.609917
 11
1.668355
 21
0.565268
  0
LINE
  8
Layer0$C$L0
 10
1.804154
 20
0.701067
 11
1.723976
 21
0.620890
  0
LINE
  8
Layer0$C$L0
 10
1.598088
 20
0.516215
 11
1.540710
 21
0.458837
  0
LINE
  8
Layer0$C$L0
 10
1.691790
 20
0.609917
 11
1.647141
 21
0.565268
  0
LINE
  8
Layer0$C$L0
 10
1.790006
 20
0.708133
 11
1.718802
 21
0.636928
  0
LINE
  8
Layer0$C$L0
 10
1.585348
 20
0.524688
 11
1.523907
 21
0.463247
  0
LINE
  8
Layer0$C$L0
 10
1.670577
 20
0.609917
 11
1.625928
 21
0.565268
  0
LINE
  8
Layer0$C$L0
 10
1.774879
 20
0.714219
 11
1.711093
 21
0.650433
  0
LINE
  8
Layer0$C$L0
 10
1.575164
 20
0.535717
 11
1.508211
 21
0.468764
  0
LINE
  8
Layer0$C$L0
 10
1.649364
 20
0.609917
 11
1.604715
 21
0.565268
  0
LINE
  8
Layer0$C$L0
 10
1.758788
 20
0.719341
 11
1.700377
 21
0.660930
  0
LINE
  8
Layer0$C$L0
 10
1.568069
 20
0.549836
 11
1.493604
 21
0.475370
  0
LINE
  8
Layer0$C$L0
 10
1.628151
 20
0.609917
 11
1.583502
 21
0.565268
  0
LINE
  8
Layer0$C$L0
 10
1.741739
 20
0.723505
 11
1.686808
 21
0.668574
  0
LINE
  8
Layer0$C$L0
 10
1.606938
 20
0.609917
 11
1.480030
 21
0.483009
  0
LINE
  8
Layer0$C$L0
 10
1.723770
 20
0.726749
 11
1.670594
 21
0.673574
  0
LINE
  8
Layer0$C$L0
 10
1.585724
 20
0.609917
 11
1.467445
 21
0.491637
  0
LINE
  8
Layer0$C$L0
 10
1.704983
 20
0.729176
 11
1.651686
 21
0.675878
  0
LINE
  8
Layer0$C$L0
 10
1.564750
 20
0.610156
 11
1.455834
 21
0.501240
  0
LINE
  8
Layer0$C$L0
 10
1.685480
 20
0.730886
 11
1.629631
 21
0.675037
  0
LINE
  8
Layer0$C$L0
 10
1.571266
 20
0.637885
 11
1.445233
 21
0.511852
  0
LINE
  8
Layer0$C$L0
 10
1.665333
 20
0.731952
 11
1.599064
 21
0.665684
  0
LINE
  8
Layer0$C$L0
 10
1.644556
 20
0.732388
 11
1.435729
 21
0.523561
  0
LINE
  8
Layer0$C$L0
 10
1.623096
 20
0.732141
 11
1.427558
 21
0.536603
  0
LINE
  8
Layer0$C$L0
 10
1.600720
 20
0.730979
 11
1.421062
 21
0.551320
  0
LINE
  8
Layer0$C$L0
 10
1.576991
 20
0.728462
 11
1.416568
 21
0.568040
  0
LINE
  8
Layer0$C$L0
 10
1.551254
 20
0.723939
 11
1.414582
 21
0.587267
  0
LINE
  8
Layer0$C$L0
 10
1.522075
 20
0.715974
 11
1.416035
 21
0.609933
  0
LINE
  8
Layer0$C$L0
 10
1.484007
 20
0.699119
 11
1.425723
 21
0.640834
  0
LINE
  8
Layer0$C$L0
 10
1.342311
 20
0.621062
 11
1.329560
 21
0.608311
  0
LINE
  8
Layer0$C$L0
 10
1.342311
 20
0.642275
 11
1.308347
 21
0.608311
  0
LINE
  8
Layer0$C$L0
 10
1.342311
 20
0.663488
 11
1.287134
 21
0.608311
  0
LINE
  8
Layer0$C$L0
 10
1.129949
 20
0.472340
 11
1.113314
 21
0.455705
  0
LINE
  8
Layer0$C$L0
 10
1.341310
 20
0.683701
 11
1.265920
 21
0.608311
  0
LINE
  8
Layer0$C$L0
 10
1.129949
 20
0.493553
 11
1.092101
 21
0.455705
  0
LINE
  8
Layer0$C$L0
 10
1.320097
 20
0.683701
 11
1.244707
 21
0.608311
  0
LINE
  8
Layer0$C$L0
 10
1.129949
 20
0.514766
 11
1.070888
 21
0.455705
  0
LINE
  8
Layer0$C$L0
 10
1.298884
 20
0.683701
 11
1.223494
 21
0.608311
  0
LINE
  8
Layer0$C$L0
 10
1.378677
 20
0.763494
 11
1.364100
 21
0.748917
  0
LINE
  8
Layer0$C$L0
 10
1.129949
 20
0.535979
 11
1.049675
 21
0.455705
  0
LINE
  8
Layer0$C$L0
 10
1.277671
 20
0.683701
 11
1.202281
 21
0.608311
  0
LINE
  8
Layer0$C$L0
 10
1.378677
 20
0.784707
 11
1.342887
 21
0.748917
  0
LINE
  8
Layer0$C$L0
 10
1.129949
 20
0.557192
 11
1.028461
 21
0.455705
  0
LINE
  8
Layer0$C$L0
 10
1.256457
 20
0.683701
 11
1.181068
 21
0.608311
  0
LINE
  8
Layer0$C$L0
 10
1.378677
 20
0.805920
 11
1.321674
 21
0.748917
  0
LINE
  8
Layer0$C$L0
 10
1.129949
 20
0.578406
 11
1.007248
 21
0.455705
  0
LINE
  8
Layer0$C$L0
 10
1.235244
 20
0.683701
 11
1.159854
 21
0.608311
  0
LINE
  8
Layer0$C$L0
 10
1.378677
 20
0.827134
 11
1.300460
 21
0.748917
  0
LINE
  8
Layer0$C$L0
 10
1.129949
 20
0.599619
 11
0.986035
 21
0.455705
  0
LINE
  8
Layer0$C$L0
 10
1.214031
 20
0.683701
 11
1.138641
 21
0.608311
  0
LINE
  8
Layer0$C$L0
 10
1.359507
 20
0.829177
 11
1.279247
 21
0.748917
  0
LINE
  8
Layer0$C$L0
 10
1.192818
 20
0.683701
 11
0.964822
 21
0.455705
  0
LINE
  8
Layer0$C$L0
 10
1.338294
 20
0.829177
 11
1.258034
 21
0.748917
  0
LINE
  8
Layer0$C$L0
 10
1.171605
 20
0.683701
 11
0.959827
 21
0.471923
  0
LINE
  8
Layer0$C$L0
 10
1.317081
 20
0.829177
 11
1.236821
 21
0.748917
  0
LINE
  8
Layer0$C$L0
 10
1.150391
 20
0.683701
 11
0.959827
 21
0.493136
  0
LINE
  8
Layer0$C$L0
 10
1.295867
 20
0.829177
 11
1.215607
 21
0.748917
  0
LINE
  8
Layer0$C$L0
 10
1.129949
 20
0.684472
 11
0.959827
 21
0.514350
  0
LINE
  8
Layer0$C$L0
 10
1.274654
 20
0.829177
 11
1.194394
 21
0.748917
  0
LINE
  8
Layer0$C$L0
 10
1.129949
 20
0.705685
 11
0.959827
 21
0.535563
  0
LINE
  8
Layer0$C$L0
 10
1.253441
 20
0.829177
 11
1.173181
 21
0.748917
  0
LINE
  8
Layer0$C$L0
 10
1.129949
 20
0.726898
 11
0.959827
 21
0.556776
  0
LINE
  8
Layer0$C$L0
 10
1.232228
 20
0.829177
 11
1.151968
 21
0.748917
  0
LINE
  8
Layer0$C$L0
 10
1.129949
 20
0.748111
 11
0.959827
 21
0.577989
  0
LINE
  8
Layer0$C$L0
 10
1.211015
 20
0.829177
 11
1.130755
 21
0.748917
  0
LINE
  8
Layer0$C$L0
 10
1.189801
 20
0.829177
 11
0.959827
 21
0.599203
  0
LINE
  8
Layer0$C$L0
 10
1.168588
 20
0.829177
 11
0.959827
 21
0.620416
  0
LINE
  8
Layer0$C$L0
 10
1.147375
 20
0.829177
 11
0.959827
 21
0.641629
  0
LINE
  8
Layer0$C$L0
 10
1.126162
 20
0.829177
 11
0.959827
 21
0.662842
  0
LINE
  8
Layer0$C$L0
 10
1.104949
 20
0.829177
 11
0.959827
 21
0.684055
  0
LINE
  8
Layer0$C$L0
 10
1.083735
 20
0.829177
 11
0.959827
 21
0.705269
  0
LINE
  8
Layer0$C$L0
 10
1.062522
 20
0.829177
 11
0.959827
 21
0.726482
  0
LINE
  8
Layer0$C$L0
 10
1.041309
 20
0.829177
 11
0.959827
 21
0.747695
  0
LINE
  8
Layer0$C$L0
 10
1.020096
 20
0.829177
 11
0.959827
 21
0.768908
  0
LINE
  8
Layer0$C$L0
 10
0.998883
 20
0.829177
 11
0.959827
 21
0.790121
  0
LINE
  8
Layer0$C$L0
 10
0.977669
 20
0.829177
 11
0.959827
 21
0.811335
  0
ENDBLK
  8
Layer0$C$L0
  0
BLOCK
  8
Layer0$C$L0
  2
*X2
 70
     1
 10
0.000000
 20
0.000000
  0
LINE
  8
Layer0$C$L0
 10
4.881419
 20
0.440788
 11
4.891315
 21
0.450684
  0
LINE
  8
Layer0$C$L0
 10
4.891315
 20
0.464827
 11
4.867276
 21
0.440788
  0
LINE
  8
Layer0$C$L0
 10
4.853134
 20
0.440788
 11
4.891315
 21
0.478969
  0
LINE
  8
Layer0$C$L0
 10
4.891315
 20
0.493111
 11
4.838992
 21
0.440788
  0
LINE
  8
Layer0$C$L0
 10
4.824850
 20
0.440788
 11
4.891315
 21
0.507253
  0
LINE
  8
Layer0$C$L0
 10
4.891315
 20
0.521395
 11
4.810708
 21
0.440788
  0
LINE
  8
Layer0$C$L0
 10
4.796566
 20
0.440788
 11
4.891315
 21
0.535537
  0
LINE
  8
Layer0$C$L0
 10
4.891315
 20
0.549679
 11
4.782423
 21
0.440788
  0
LINE
  8
Layer0$C$L0
 10
4.768281
 20
0.440788
 11
4.891315
 21
0.563821
  0
LINE
  8
Layer0$C$L0
 10
4.891315
 20
0.577964
 11
4.754139
 21
0.440788
  0
LINE
  8
Layer0$C$L0
 10
4.739997
 20
0.440788
 11
4.891315
 21
0.592106
  0
LINE
  8
Layer0$C$L0
 10
4.891315
 20
0.606248
 11
4.725855
 21
0.440788
  0
LINE
  8
Layer0$C$L0
 10
4.711713
 20
0.440788
 11
4.891315
 21
0.620390
  0
LINE
  8
Layer0$C$L0
 10
4.891315
 20
0.634532
 11
4.697571
 21
0.440788
  0
LINE
  8
Layer0$C$L0
 10
4.683429
 20
0.440788
 11
4.891315
 21
0.648674
  0
LINE
  8
Layer0$C$L0
 10
4.891315
 20
0.662816
 11
4.669286
 21
0.440788
  0
LINE
  8
Layer0$C$L0
 10
4.655144
 20
0.440788
 11
4.891315
 21
0.676959
  0
LINE
  8
Layer0$C$L0
 10
4.891315
 20
0.691101
 11
4.641002
 21
0.440788
  0
LINE
  8
Layer0$C$L0
 10
4.626860
 20
0.440788
 11
4.891315
 21
0.705243
  0
LINE
  8
Layer0$C$L0
 10
4.891315
 20
0.719385
 11
4.612718
 21
0.440788
  0
LINE
  8
Layer0$C$L0
 10
4.598576
 20
0.440788
 11
4.885052
 21
0.727264
  0
LINE
  8
Layer0$C$L0
 10
4.870910
 20
0.727264
 11
4.584434
 21
0.440788
  0
LINE
  8
Layer0$C$L0
 10
4.570292
 20
0.440788
 11
4.856768
 21
0.727264
  0
LINE
  8
Layer0$C$L0
 10
4.842626
 20
0.727264
 11
4.556149
 21
0.440788
  0
LINE
  8
Layer0$C$L0
 10
4.542007
 20
0.440788
 11
4.828484
 21
0.727264
  0
LINE
  8
Layer0$C$L0
 10
4.814341
 20
0.727264
 11
4.527865
 21
0.440788
  0
LINE
  8
Layer0$C$L0
 10
4.513723
 20
0.440788
 11
4.800199
 21
0.727264
  0
LINE
  8
Layer0$C$L0
 10
4.786057
 20
0.727264
 11
4.499581
 21
0.440788
  0
LINE
  8
Layer0$C$L0
 10
4.485439
 20
0.440788
 11
4.771915
 21
0.727264
  0
LINE
  8
Layer0$C$L0
 10
4.757773
 20
0.727264
 11
4.471297
 21
0.440788
  0
LINE
  8
Layer0$C$L0
 10
4.457154
 20
0.440788
 11
4.743630
 21
0.727264
  0
LINE
  8
Layer0$C$L0
 10
4.729488
 20
0.727264
 11
4.443012
 21
0.440788
  0
LINE
  8
Layer0$C$L0
 10
4.428870
 20
0.440788
 11
4.715346
 21
0.727264
  0
LINE
  8
Layer0$C$L0
 10
4.701204
 20
0.727264
 11
4.414728
 21
0.440788
  0
LINE
  8
Layer0$C$L0
 10
4.400586
 20
0.440788
 11
4.687062
 21
0.727264
  0
LINE
  8
Layer0$C$L0
 10
4.672920
 20
0.727264
 11
4.386444
 21
0.440788
  0
LINE
  8
Layer0$C$L0
 10
4.372302
 20
0.440788
 11
4.658778
 21
0.727264
  0
LINE
  8
Layer0$C$L0
 10
4.644636
 20
0.727264
 11
4.358160
 21
0.440788
  0
LINE
  8
Layer0$C$L0
 10
4.344018
 20
0.440788
 11
4.630494
 21
0.727264
  0
LINE
  8
Layer0$C$L0
 10
4.616351
 20
0.727264
 11
4.329875
 21
0.440788
  0
LINE
  8
Layer0$C$L0
 10
4.315733
 20
0.440788
 11
4.602209
 21
0.727264
  0
LINE
  8
Layer0$C$L0
 10
4.588067
 20
0.727264
 11
4.301591
 21
0.440788
  0
LINE
  8
Layer0$C$L0
 10
4.287449
 20
0.440788
 11
4.573925
 21
0.727264
  0
LINE
  8
Layer0$C$L0
 10
4.559783
 20
0.727264
 11
4.273307
 21
0.440788
  0
LINE
  8
Layer0$C$L0
 10
4.259164
 20
0.440788
 11
4.545640
 21
0.727264
  0
LINE
  8
Layer0$C$L0
 10
4.531498
 20
0.727264
 11
4.245022
 21
0.440788
  0
LINE
  8
Layer0$C$L0
 10
4.230880
 20
0.440788
 11
4.517356
 21
0.727264
  0
LINE
  8
Layer0$C$L0
 10
4.503214
 20
0.727264
 11
4.216738
 21
0.440788
  0
LINE
  8
Layer0$C$L0
 10
4.202596
 20
0.440788
 11
4.489072
 21
0.727264
  0
LINE
  8
Layer0$C$L0
 10
4.474930
 20
0.727264
 11
4.188454
 21
0.440788
  0
LINE
  8
Layer0$C$L0
 10
4.174312
 20
0.440788
 11
4.460788
 21
0.727264
  0
LINE
  8
Layer0$C$L0
 10
4.446646
 20
0.727264
 11
4.160170
 21
0.440788
  0
LINE
  8
Layer0$C$L0
 10
4.146028
 20
0.440788
 11
4.432504
 21
0.727264
  0
LINE
  8
Layer0$C$L0
 10
4.418362
 20
0.727264
 11
4.131886
 21
0.440788
  0
LINE
  8
Layer0$C$L0
 10
4.117743
 20
0.440788
 11
4.404219
 21
0.727264
  0
LINE
  8
Layer0$C$L0
 10
4.390077
 20
0.727264
 11
4.103601
 21
0.440788
  0
LINE
  8
Layer0$C$L0
 10
4.089459
 20
0.440788
 11
4.375935
 21
0.727264
  0
LINE
  8
Layer0$C$L0
 10
4.361793
 20
0.727264
 11
4.075317
 21
0.440788
  0
LINE
  8
Layer0$C$L0
 10
4.061174
 20
0.440788
 11
4.347651
 21
0.727264
  0
LINE
  8
Layer0$C$L0
 10
4.333508
 20
0.727264
 11
4.047032
 21
0.440788
  0
LINE
  8
Layer0$C$L0
 10
4.032890
 20
0.440788
 11
4.319366
 21
0.727264
  0
LINE
  8
Layer0$C$L0
 10
4.305224
 20
0.727264
 11
4.018748
 21
0.440788
  0
LINE
  8
Layer0$C$L0
 10
4.004606
 20
0.440788
 11
4.291082
 21
0.727264
  0
LINE
  8
Layer0$C$L0
 10
4.276940
 20
0.727264
 11
3.990464
 21
0.440788
  0
LINE
  8
Layer0$C$L0
 10
3.976322
 20
0.440788
 11
4.262798
 21
0.727264
  0
LINE
  8
Layer0$C$L0
 10
4.248656
 20
0.727264
 11
3.962180
 21
0.440788
  0
LINE
  8
Layer0$C$L0
 10
3.948038
 20
0.440788
 11
4.234514
 21
0.727264
  0
LINE
  8
Layer0$C$L0
 10
4.220372
 20
0.727264
 11
3.933895
 21
0.440788
  0
LINE
  8
Layer0$C$L0
 10
3.919753
 20
0.440788
 11
4.206229
 21
0.727264
  0
LINE
  8
Layer0$C$L0
 10
4.192087
 20
0.727264
 11
3.905611
 21
0.440788
  0
LINE
  8
Layer0$C$L0
 10
3.891469
 20
0.440788
 11
4.177945
 21
0.727264
  0
LINE
  8
Layer0$C$L0
 10
4.163803
 20
0.727264
 11
3.877327
 21
0.440788
  0
LINE
  8
Layer0$C$L0
 10
3.863185
 20
0.440788
 11
4.149661
 21
0.727264
  0
LINE
  8
Layer0$C$L0
 10
4.135519
 20
0.727264
 11
3.849043
 21
0.440788
  0
LINE
  8
Layer0$C$L0
 10
3.834900
 20
0.440788
 11
4.121377
 21
0.727264
  0
LINE
  8
Layer0$C$L0
 10
4.107234
 20
0.727264
 11
3.820758
 21
0.440788
  0
LINE
  8
Layer0$C$L0
 10
3.806616
 20
0.440788
 11
4.093092
 21
0.727264
  0
LINE
  8
Layer0$C$L0
 10
4.078950
 20
0.727264
 11
3.792474
 21
0.440788
  0
LINE
  8
Layer0$C$L0
 10
3.778332
 20
0.440788
 11
4.064808
 21
0.727264
  0
LINE
  8
Layer0$C$L0
 10
4.050666
 20
0.727264
 11
3.764190
 21
0.440788
  0
LINE
  8
Layer0$C$L0
 10
3.750048
 20
0.440788
 11
4.036524
 21
0.727264
  0
LINE
  8
Layer0$C$L0
 10
4.022382
 20
0.727264
 11
3.735905
 21
0.440788
  0
LINE
  8
Layer0$C$L0
 10
3.721763
 20
0.440788
 11
4.008240
 21
0.727264
  0
LINE
  8
Layer0$C$L0
 10
3.994097
 20
0.727264
 11
3.707621
 21
0.440788
  0
LINE
  8
Layer0$C$L0
 10
3.704484
 20
0.451793
 11
3.979955
 21
0.727264
  0
LINE
  8
Layer0$C$L0
 10
3.965813
 20
0.727264
 11
3.704484
 21
0.465935
  0
LINE
  8
Layer0$C$L0
 10
3.704484
 20
0.480077
 11
3.951671
 21
0.727264
  0
LINE
  8
Layer0$C$L0
 10
3.937529
 20
0.727264
 11
3.704484
 21
0.494219
  0
LINE
  8
Layer0$C$L0
 10
3.704484
 20
0.508361
 11
3.923387
 21
0.727264
  0
LINE
  8
Layer0$C$L0
 10
3.909245
 20
0.727264
 11
3.704484
 21
0.522503
  0
LINE
  8
Layer0$C$L0
 10
3.704484
 20
0.536646
 11
3.895103
 21
0.727264
  0
LINE
  8
Layer0$C$L0
 10
3.880960
 20
0.727264
 11
3.704484
 21
0.550788
  0
LINE
  8
Layer0$C$L0
 10
3.704484
 20
0.564930
 11
3.866818
 21
0.727264
  0
LINE
  8
Layer0$C$L0
 10
3.852676
 20
0.727264
 11
3.704484
 21
0.579072
  0
LINE
  8
Layer0$C$L0
 10
3.704484
 20
0.593214
 11
3.838534
 21
0.727264
  0
LINE
  8
Layer0$C$L0
 10
3.824392
 20
0.727264
 11
3.704484
 21
0.607356
  0
LINE
  8
Layer0$C$L0
 10
3.704484
 20
0.621498
 11
3.810250
 21
0.727264
  0
LINE
  8
Layer0$C$L0
 10
3.796108
 20
0.727264
 11
3.704484
 21
0.635641
  0
LINE
  8
Layer0$C$L0
 10
3.704484
 20
0.649783
 11
3.781965
 21
0.727264
  0
LINE
  8
Layer0$C$L0
 10
3.767823
 20
0.727264
 11
3.704484
 21
0.663925
  0
LINE
  8
Layer0$C$L0
 10
3.704484
 20
0.678067
 11
3.753681
 21
0.727264
  0
LINE
  8
Layer0$C$L0
 10
3.739539
 20
0.727264
 11
3.704484
 21
0.692209
  0
LINE
  8
Layer0$C$L0
 10
3.704484
 20
0.706351
 11
3.725397
 21
0.727264
  0
LINE
  8
Layer0$C$L0
 10
3.711255
 20
0.727264
 11
3.704484
 21
0.720493
  0
ENDBLK
  8
Layer0$C$L0
  0
BLOCK
  8
Layer0$C$L0
  2
*X3
 70
     1
 10
0.000000
 20
0.000000
  0
LINE
  8
Layer0$C$L0
 10
0.828653
 20
0.404389
 11
0.831420
 21
0.407156
  0
LINE
  8
Layer0$C$L0
 10
0.831403
 20
0.421282
 11
0.819820
 21
0.409698
  0
LINE
  8
Layer0$C$L0
 10
0.810411
 20
0.414431
 11
0.831387
 21
0.435407
  0
LINE
  8
Layer0$C$L0
 10
0.831371
 20
0.449533
 11
0.800544
 21
0.418706
  0
LINE
  8
Layer0$C$L0
 10
0.790323
 20
0.422628
 11
0.831355
 21
0.463659
  0
LINE
  8
Layer0$C$L0
 10
0.824938
 20
0.471384
 11
0.779767
 21
0.426213
  0
LINE
  8
Layer0$C$L0
 10
0.768887
 20
0.429476
 11
0.810297
 21
0.470886
  0
LINE
  8
Layer0$C$L0
 10
0.795657
 20
0.470388
 11
0.757709
 21
0.432440
  0
LINE
  8
Layer0$C$L0
 10
0.746285
 20
0.435158
 11
0.781016
 21
0.469889
  0
LINE
  8
Layer0$C$L0
 10
0.766376
 20
0.469391
 11
0.734662
 21
0.437677
  0
LINE
  8
Layer0$C$L0
 10
0.722875
 20
0.440032
 11
0.751736
 21
0.468893
  0
LINE
  8
Layer0$C$L0
 10
0.737095
 20
0.468395
 11
0.710956
 21
0.442256
  0
LINE
  8
Layer0$C$L0
 10
0.698925
 20
0.444366
 11
0.722455
 21
0.467896
  0
LINE
  8
Layer0$C$L0
 10
0.707814
 20
0.467398
 11
0.686797
 21
0.446381
  0
LINE
  8
Layer0$C$L0
 10
0.674584
 20
0.448310
 11
0.693174
 21
0.466900
  0
LINE
  8
Layer0$C$L0
 10
0.683959
 20
0.471827
 11
0.662289
 21
0.450157
  0
LINE
  8
Layer0$C$L0
 10
0.649916
 20
0.451926
 11
0.679090
 21
0.481100
  0
LINE
  8
Layer0$C$L0
 10
0.672681
 20
0.488833
 11
0.637474
 21
0.453626
  0
LINE
  8
Layer0$C$L0
 10
0.624985
 20
0.455280
 11
0.664796
 21
0.495090
  0
LINE
  8
Layer0$C$L0
 10
0.655531
 20
0.499968
 11
0.612476
 21
0.456912
  0
LINE
  8
Layer0$C$L0
 10
0.599985
 20
0.458564
 11
0.645016
 21
0.503594
  0
LINE
  8
Layer0$C$L0
 10
0.633432
 20
0.506152
 11
0.587635
 21
0.460356
  0
LINE
  8
Layer0$C$L0
 10
0.575584
 20
0.462447
 11
0.620900
 21
0.507763
  0
LINE
  8
Layer0$C$L0
 10
0.607508
 20
0.508513
 11
0.564109
 21
0.465114
  0
LINE
  8
Layer0$C$L0
 10
0.553669
 20
0.468816
 11
0.593302
 21
0.508449
  0
LINE
  8
Layer0$C$L0
 10
0.577937
 20
0.507227
 11
0.545069
 21
0.474358
  0
LINE
  8
Layer0$C$L0
 10
0.540659
 20
0.484090
 11
0.559161
 21
0.502593
  0
ENDBLK
  8
Layer0$C$L0
  0
BLOCK
  8
Layer0$C$L0
  2
*X4
 70
     1
 10
0.000000
 20
0.000000
  0
LINE
  8
Layer0$C$L0
 10
0.826519
 20
0.515392
 11
0.831290
 21
0.520163
  0
LINE
  8
Layer0$C$L0
 10
0.831274
 20
0.534289
 11
0.819562
 21
0.522578
  0
LINE
  8
Layer0$C$L0
 10
0.811924
 20
0.529082
 11
0.831258
 21
0.548415
  0
LINE
  8
Layer0$C$L0
 10
0.831242
 20
0.562541
 11
0.803572
 21
0.534872
  0
LINE
  8
Layer0$C$L0
 10
0.794575
 20
0.540016
 11
0.831225
 21
0.576667
  0
LINE
  8
Layer0$C$L0
 10
0.831209
 20
0.590793
 11
0.784996
 21
0.544579
  0
LINE
  8
Layer0$C$L0
 10
0.774913
 20
0.548638
 11
0.831193
 21
0.604919
  0
LINE
  8
Layer0$C$L0
 10
0.831177
 20
0.619045
 11
0.764366
 21
0.552234
  0
LINE
  8
Layer0$C$L0
 10
0.753389
 20
0.555400
 11
0.831161
 21
0.633171
  0
LINE
  8
Layer0$C$L0
 10
0.831144
 20
0.647297
 11
0.742016
 21
0.558168
  0
LINE
  8
Layer0$C$L0
 10
0.730275
 20
0.560570
 11
0.831128
 21
0.661423
  0
LINE
  8
Layer0$C$L0
 10
0.831112
 20
0.675549
 11
0.718196
 21
0.562633
  0
LINE
  8
Layer0$C$L0
 10
0.705800
 20
0.564379
 11
0.831096
 21
0.689675
  0
LINE
  8
Layer0$C$L0
 10
0.831080
 20
0.703801
 11
0.693109
 21
0.565829
  0
LINE
  8
Layer0$C$L0
 10
0.680142
 20
0.567005
 11
0.831064
 21
0.717926
  0
LINE
  8
Layer0$C$L0
 10
0.831047
 20
0.732052
 11
0.666912
 21
0.567917
  0
LINE
  8
Layer0$C$L0
 10
0.653434
 20
0.568581
 11
0.831031
 21
0.746178
  0
LINE
  8
Layer0$C$L0
 10
0.831015
 20
0.760304
 11
0.639723
 21
0.569012
  0
LINE
  8
Layer0$C$L0
 10
0.625798
 20
0.569229
 11
0.830999
 21
0.774430
  0
LINE
  8
Layer0$C$L0
 10
0.830983
 20
0.788556
 11
0.611677
 21
0.569250
  0
LINE
  8
Layer0$C$L0
 10
0.597362
 20
0.569078
 11
0.830966
 21
0.802682
  0
LINE
  8
Layer0$C$L0
 10
0.830950
 20
0.816808
 11
0.582830
 21
0.568688
  0
LINE
  8
Layer0$C$L0
 10
0.568051
 20
0.568051
 11
0.830934
 21
0.830934
  0
LINE
  8
Layer0$C$L0
 10
0.817850
 20
0.831992
 11
0.552974
 21
0.567116
  0
LINE
  8
Layer0$C$L0
 10
0.537525
 20
0.565809
 11
0.803708
 21
0.831992
  0
LINE
  8
Layer0$C$L0
 10
0.789566
 20
0.831992
 11
0.521588
 21
0.564015
  0
LINE
  8
Layer0$C$L0
 10
0.504961
 20
0.561530
 11
0.775423
 21
0.831992
  0
LINE
  8
Layer0$C$L0
 10
0.761281
 20
0.831992
 11
0.487322
 21
0.558032
  0
LINE
  8
Layer0$C$L0
 10
0.468119
 20
0.552972
 11
0.747139
 21
0.831992
  0
LINE
  8
Layer0$C$L0
 10
0.732997
 20
0.831992
 11
0.446304
 21
0.545298
  0
LINE
  8
Layer0$C$L0
 10
0.388165
 20
0.501302
 11
0.390226
 21
0.503363
  0
LINE
  8
Layer0$C$L0
 10
0.718855
 20
0.831992
 11
0.416351
 21
0.529488
  0
LINE
  8
Layer0$C$L0
 10
0.704713
 20
0.831992
 11
0.388165
 21
0.515444
  0
LINE
  8
Layer0$C$L0
 10
0.690571
 20
0.831992
 11
0.388165
 21
0.529586
  0
LINE
  8
Layer0$C$L0
 10
0.676429
 20
0.831992
 11
0.388165
 21
0.543728
  0
LINE
  8
Layer0$C$L0
 10
0.662286
 20
0.831992
 11
0.388165
 21
0.557871
  0
LINE
  8
Layer0$C$L0
 10
0.648144
 20
0.831992
 11
0.380069
 21
0.563917
  0
LINE
  8
Layer0$C$L0
 10
0.634002
 20
0.831992
 11
0.365927
 21
0.563917
  0
LINE
  8
Layer0$C$L0
 10
0.619860
 20
0.831992
 11
0.351785
 21
0.563917
  0
LINE
  8
Layer0$C$L0
 10
0.605718
 20
0.831992
 11
0.337643
 21
0.563917
  0
LINE
  8
Layer0$C$L0
 10
0.591576
 20
0.831992
 11
0.323501
 21
0.563917
  0
LINE
  8
Layer0$C$L0
 10
0.577434
 20
0.831992
 11
0.309359
 21
0.563917
  0
LINE
  8
Layer0$C$L0
 10
0.563291
 20
0.831992
 11
0.295216
 21
0.563917
  0
LINE
  8
Layer0$C$L0
 10
0.549149
 20
0.831992
 11
0.281074
 21
0.563917
  0
LINE
  8
Layer0$C$L0
 10
0.535007
 20
0.831992
 11
0.266932
 21
0.563917
  0
LINE
  8
Layer0$C$L0
 10
0.520865
 20
0.831992
 11
0.252790
 21
0.563917
  0
LINE
  8
Layer0$C$L0
 10
0.506723
 20
0.831992
 11
0.238648
 21
0.563917
  0
LINE
  8
Layer0$C$L0
 10
0.492581
 20
0.831992
 11
0.224506
 21
0.563917
  0
LINE
  8
Layer0$C$L0
 10
0.478439
 20
0.831992
 11
0.210364
 21
0.563917
  0
LINE
  8
Layer0$C$L0
 10
0.464296
 20
0.831992
 11
0.196222
 21
0.563917
  0
LINE
  8
Layer0$C$L0
 10
0.450154
 20
0.831992
 11
0.182079
 21
0.563917
  0
LINE
  8
Layer0$C$L0
 10
0.436012
 20
0.831992
 11
0.167937
 21
0.563917
  0
LINE
  8
Layer0$C$L0
 10
0.421870
 20
0.831992
 11
0.153795
 21
0.563917
  0
LINE
  8
Layer0$C$L0
 10
0.407728
 20
0.831992
 11
0.139653
 21
0.563917
  0
LINE
  8
Layer0$C$L0
 10
0.393586
 20
0.831992
 11
0.125511
 21
0.563917
  0
LINE
  8
Layer0$C$L0
 10
0.379444
 20
0.831992
 11
0.111369
 21
0.563917
  0
LINE
  8
Layer0$C$L0
 10
0.365302
 20
0.831992
 11
9.722657E-02
 21
0.563917
  0
LINE
  8
Layer0$C$L0
 10
0.351159
 20
0.831992
 11
8.308443E-02
 21
0.563917
  0
LINE
  8
Layer0$C$L0
 10
0.337017
 20
0.831992
 11
6.894229E-02
 21
0.563917
  0
LINE
  8
Layer0$C$L0
 10
0.322875
 20
0.831992
 11
5.480016E-02
 21
0.563917
  0
LINE
  8
Layer0$C$L0
 10
0.308733
 20
0.831992
 11
4.065802E-02
 21
0.563917
  0
LINE
  8
Layer0$C$L0
 10
0.294591
 20
0.831992
 11
2.651589E-02
 21
0.563917
  0
LINE
  8
Layer0$C$L0
 10
0.280449
 20
0.831992
 11
1.237375E-02
 21
0.563917
  0
LINE
  8
Layer0$C$L0
 10
0.266307
 20
0.831992
 11
-2.839878E-04
 21
0.565401
  0
LINE
  8
Layer0$C$L0
 10
0.252164
 20
0.831992
 11
-2.910964E-04
 21
0.579536
  0
LINE
  8
Layer0$C$L0
 10
0.238022
 20
0.831992
 11
-2.982049E-04
 21
0.593672
  0
LINE
  8
Layer0$C$L0
 10
0.223880
 20
0.831992
 11
-3.053135E-04
 21
0.607807
  0
LINE
  8
Layer0$C$L0
 10
0.209738
 20
0.831992
 11
-3.124221E-04
 21
0.621942
  0
LINE
  8
Layer0$C$L0
 10
0.195596
 20
0.831992
 11
-3.195306E-04
 21
0.636077
  0
LINE
  8
Layer0$C$L0
 10
0.181454
 20
0.831992
 11
-3.266392E-04
 21
0.650212
  0
LINE
  8
Layer0$C$L0
 10
0.167312
 20
0.831992
 11
-3.337478E-04
 21
0.664347
  0
LINE
  8
Layer0$C$L0
 10
0.153170
 20
0.831992
 11
-3.408563E-04
 21
0.678482
  0
LINE
  8
Layer0$C$L0
 10
0.139027
 20
0.831992
 11
-3.479649E-04
 21
0.692617
  0
LINE
  8
Layer0$C$L0
 10
0.124885
 20
0.831992
 11
-3.550735E-04
 21
0.706752
  0
LINE
  8
Layer0$C$L0
 10
0.110743
 20
0.831992
 11
-3.621821E-04
 21
0.720887
  0
LINE
  8
Layer0$C$L0
 10
9.638471E-02
 20
0.831776
 11
-1.499182E-04
 21
0.735241
  0
LINE
  8
Layer0$C$L0
 10
7.987581E-02
 20
0.829409
 11
2.217033E-03
 21
0.751750
  0
LINE
  8
Layer0$C$L0
 10
5.808144E-02
 20
0.821757
 11
9.868835E-03
 21
0.773544
  0
ENDBLK
  8
Layer0$C$L0
  0
BLOCK
  8
Layer0$C$L0
  2
*X5
 70
     1
 10
0.000000
 20
0.000000
  0
LINE
  8
Layer0$C$L0
 10
0.774478
 20
1.080228E-02
 11
0.820966
 21
5.729027E-02
  0
LINE
  8
Layer0$C$L0
 10
0.829011
 20
7.947817E-02
 11
0.752290
 21
2.756651E-03
  0
LINE
  8
Layer0$C$L0
 10
0.735646
 20
2.550570E-04
 11
0.831513
 21
9.612186E-02
  0
LINE
  8
Layer0$C$L0
 10
0.831760
 20
0.110511
 11
0.721249
 21
2.220446E-16
  0
LINE
  8
Layer0$C$L0
 10
0.707107
 20
2.220446E-16
 11
0.831743
 21
0.124637
  0
LINE
  8
Layer0$C$L0
 10
0.831727
 20
0.138763
 11
0.692965
 21
2.775558E-16
  0
LINE
  8
Layer0$C$L0
 10
0.678823
 20
2.220446E-16
 11
0.831711
 21
0.152888
  0
LINE
  8
Layer0$C$L0
 10
0.831695
 20
0.167014
 11
0.664680
 21
2.775558E-16
  0
LINE
  8
Layer0$C$L0
 10
0.650538
 20
2.220446E-16
 11
0.831679
 21
0.181140
  0
LINE
  8
Layer0$C$L0
 10
0.831662
 20
0.195266
 11
0.636396
 21
2.220446E-16
  0
LINE
  8
Layer0$C$L0
 10
0.622254
 20
2.220446E-16
 11
0.831646
 21
0.209392
  0
LINE
  8
Layer0$C$L0
 10
0.831630
 20
0.223518
 11
0.608112
 21
2.220446E-16
  0
LINE
  8
Layer0$C$L0
 10
0.593970
 20
2.220446E-16
 11
0.831614
 21
0.237644
  0
LINE
  8
Layer0$C$L0
 10
0.831598
 20
0.251770
 11
0.579828
 21
2.220446E-16
  0
LINE
  8
Layer0$C$L0
 10
0.565685
 20
1.665335E-16
 11
0.831581
 21
0.265896
  0
LINE
  8
Layer0$C$L0
 10
0.831565
 20
0.280022
 11
0.551543
 21
2.220446E-16
  0
LINE
  8
Layer0$C$L0
 10
0.537401
 20
1.665335E-16
 11
0.799398
 21
0.261997
  0
LINE
  8
Layer0$C$L0
 10
0.775868
 20
0.252609
 11
0.523259
 21
2.220446E-16
  0
LINE
  8
Layer0$C$L0
 10
0.509117
 20
1.665335E-16
 11
0.755684
 21
0.246567
  0
LINE
  8
Layer0$C$L0
 10
0.737297
 20
0.242322
 11
0.494975
 21
1.942890E-16
  0
LINE
  8
Layer0$C$L0
 10
0.480833
 20
1.942890E-16
 11
0.720071
 21
0.239238
  0
LINE
  8
Layer0$C$L0
 10
0.703660
 20
0.236969
 11
0.466690
 21
1.942890E-16
  0
LINE
  8
Layer0$C$L0
 10
0.452548
 20
1.665335E-16
 11
0.687849
 21
0.235300
  0
LINE
  8
Layer0$C$L0
 10
0.672498
 20
0.234091
 11
0.438406
 21
1.665335E-16
  0
LINE
  8
Layer0$C$L0
 10
0.424264
 20
1.665335E-16
 11
0.657526
 21
0.233262
  0
LINE
  8
Layer0$C$L0
 10
0.642870
 20
0.232748
 11
0.410122
 21
1.665335E-16
  0
LINE
  8
Layer0$C$L0
 10
0.395980
 20
1.665335E-16
 11
0.628472
 21
0.232492
  0
LINE
  8
Layer0$C$L0
 10
0.614284
 20
0.232446
 11
0.381838
 21
1.942890E-16
  0
LINE
  8
Layer0$C$L0
 10
0.367696
 20
1.665335E-16
 11
0.600279
 21
0.232583
  0
LINE
  8
Layer0$C$L0
 10
0.698925
 20
0.331229
 11
0.670736
 21
0.303041
  0
LINE
  8
Layer0$C$L0
 10
0.586454
 20
0.232900
 11
0.353553
 21
1.665335E-16
  0
LINE
  8
Layer0$C$L0
 10
0.694832
 20
0.341279
 11
0.652051
 21
0.298497
  0
LINE
  8
Layer0$C$L0
 10
0.572808
 20
0.233397
 11
0.339411
 21
1.665335E-16
  0
LINE
  8
Layer0$C$L0
 10
0.687522
 20
0.348110
 11
0.636267
 21
0.296856
  0
LINE
  8
Layer0$C$L0
 10
0.559352
 20
0.234083
 11
0.325269
 21
1.665335E-16
  0
LINE
  8
Layer0$C$L0
 10
0.678601
 20
0.353332
 11
0.621724
 21
0.296455
  0
LINE
  8
Layer0$C$L0
 10
0.546104
 20
0.234977
 11
0.311127
 21
1.665335E-16
  0
LINE
  8
Layer0$C$L0
 10
0.668387
 20
0.357260
 11
0.608008
 21
0.296881
  0
LINE
  8
Layer0$C$L0
 10
0.533080
 20
0.236096
 11
0.296985
 21
1.387779E-16
  0
LINE
  8
Layer0$C$L0
 10
0.657320
 20
0.360335
 11
0.595116
 21
0.298132
  0
LINE
  8
Layer0$C$L0
 10
0.520300
 20
0.237458
 11
0.282843
 21
1.387779E-16
  0
LINE
  8
Layer0$C$L0
 10
0.645792
 20
0.362949
 11
0.583081
 21
0.300238
  0
LINE
  8
Layer0$C$L0
 10
0.507779
 20
0.239079
 11
0.268701
 21
1.387779E-16
  0
LINE
  8
Layer0$C$L0
 10
0.633908
 20
0.365208
 11
0.571919
 21
0.303218
  0
LINE
  8
Layer0$C$L0
 10
0.495543
 20
0.240985
 11
0.254558
 21
1.387779E-16
  0
LINE
  8
Layer0$C$L0
 10
0.621771
 20
0.367213
 11
0.561640
 21
0.307082
  0
LINE
  8
Layer0$C$L0
 10
0.483622
 20
0.243205
 11
0.240416
 21
1.249001E-16
  0
LINE
  8
Layer0$C$L0
 10
0.609463
 20
0.369047
 11
0.552301
 21
0.311884
  0
LINE
  8
Layer0$C$L0
 10
0.472044
 20
0.245770
 11
0.226274
 21
1.387779E-16
  0
LINE
  8
Layer0$C$L0
 10
0.597058
 20
0.370784
 11
0.544015
 21
0.317741
  0
LINE
  8
Layer0$C$L0
 10
0.460838
 20
0.248706
 11
0.212132
 21
1.387779E-16
  0
LINE
  8
Layer0$C$L0
 10
0.584636
 20
0.372504
 11
0.536922
 21
0.324790
  0
LINE
  8
Layer0$C$L0
 10
0.450043
 20
0.252053
 11
0.197990
 21
1.249001E-16
  0
LINE
  8
Layer0$C$L0
 10
0.572253
 20
0.374264
 11
0.531185
 21
0.333196
  0
LINE
  8
Layer0$C$L0
 10
0.439750
 20
0.255903
 11
0.183848
 21
1.249001E-16
  0
LINE
  8
Layer0$C$L0
 10
0.559950
 20
0.376103
 11
0.526770
 21
0.342922
  0
LINE
  8
Layer0$C$L0
 10
0.430021
 20
0.260316
 11
0.169706
 21
1.110223E-16
  0
LINE
  8
Layer0$C$L0
 10
0.547763
 20
0.378057
 11
0.521339
 21
0.351633
  0
LINE
  8
Layer0$C$L0
 10
0.420813
 20
0.265250
 11
0.155563
 21
9.714451E-17
  0
LINE
  8
Layer0$C$L0
 10
0.535718
 20
0.380154
 11
0.506661
 21
0.351098
  0
LINE
  8
Layer0$C$L0
 10
0.412077
 20
0.270656
 11
0.141421
 21
8.326673E-17
  0
LINE
  8
Layer0$C$L0
 10
0.523826
 20
0.382405
 11
0.491984
 21
0.350563
  0
LINE
  8
Layer0$C$L0
 10
0.403817
 20
0.276538
 11
0.127279
 21
6.938894E-17
  0
LINE
  8
Layer0$C$L0
 10
0.512094
 20
0.384815
 11
0.477306
 21
0.350027
  0
LINE
  8
Layer0$C$L0
 10
0.396047
 20
0.282910
 11
0.113137
 21
5.551115E-17
  0
LINE
  8
Layer0$C$L0
 10
0.500529
 20
0.387392
 11
0.462629
 21
0.349492
  0
LINE
  8
Layer0$C$L0
 10
0.388780
 20
0.289785
 11
9.899495E-02
 21
4.163336E-17
  0
LINE
  8
Layer0$C$L0
 10
0.489154
 20
0.390159
 11
0.447952
 21
0.348957
  0
LINE
  8
Layer0$C$L0
 10
0.382053
 20
0.297200
 11
8.485281E-02
 21
3.469447E-17
  0
LINE
  8
Layer0$C$L0
 10
0.477992
 20
0.393139
 11
0.433274
 21
0.348421
  0
LINE
  8
Layer0$C$L0
 10
0.375954
 20
0.305243
 11
7.071068E-02
 21
3.469447E-17
  0
LINE
  8
Layer0$C$L0
 10
0.467070
 20
0.396359
 11
0.418597
 21
0.347886
  0
LINE
  8
Layer0$C$L0
 10
0.370592
 20
0.314024
 11
5.656854E-02
 21
3.122502E-17
  0
LINE
  8
Layer0$C$L0
 10
0.456439
 20
0.399870
 11
0.403919
 21
0.347351
  0
LINE
  8
Layer0$C$L0
 10
0.366105
 20
0.323678
 11
4.242641E-02
 21
2.775558E-17
  0
LINE
  8
Layer0$C$L0
 10
0.446143
 20
0.403717
 11
0.389242
 21
0.346815
  0
LINE
  8
Layer0$C$L0
 10
0.362566
 20
0.334282
 11
2.828427E-02
 21
2.602085E-17
  0
LINE
  8
Layer0$C$L0
 10
0.436232
 20
0.407948
 11
0.374564
 21
0.346280
  0
LINE
  8
Layer0$C$L0
 10
0.426750
 20
0.412608
 11
1.414214E-02
 21
2.168404E-17
  0
LINE
  8
Layer0$C$L0
 10
0.417760
 20
0.417760
 11
-9.860761E-32
 21
4.366820E-16
  0
LINE
  8
Layer0$C$L0
 10
0.409364
 20
0.423506
 11
-7.091582E-06
 21
1.413504E-02
  0
LINE
  8
Layer0$C$L0
 10
0.344346
 20
0.372630
 11
-1.418316E-05
 21
2.827009E-02
  0
LINE
  8
Layer0$C$L0
 10
0.401660
 20
0.429945
 11
0.354232
 21
0.382516
  0
LINE
  8
Layer0$C$L0
 10
0.330204
 20
0.372630
 11
-2.127475E-05
 21
4.240513E-02
  0
LINE
  8
Layer0$C$L0
 10
0.394766
 20
0.437192
 11
0.354232
 21
0.396658
  0
LINE
  8
Layer0$C$L0
 10
0.316061
 20
0.372630
 11
-2.836633E-05
 21
5.654018E-02
  0
LINE
  8
Layer0$C$L0
 10
0.388871
 20
0.445440
 11
0.354232
 21
0.410801
  0
LINE
  8
Layer0$C$L0
 10
0.301919
 20
0.372630
 11
-3.545791E-05
 21
7.067522E-02
  0
LINE
  8
Layer0$C$L0
 10
0.384309
 20
0.455020
 11
0.354232
 21
0.424943
  0
LINE
  8
Layer0$C$L0
 10
0.155608
 20
0.240461
 11
-4.254949E-05
 21
8.481026E-02
  0
LINE
  8
Layer0$C$L0
 10
0.287777
 20
0.372630
 11
0.156106
 21
0.240959
  0
LINE
  8
Layer0$C$L0
 10
0.381506
 20
0.466359
 11
0.353072
 21
0.437925
  0
LINE
  8
Layer0$C$L0
 10
0.141466
 20
0.240461
 11
-4.964108E-05
 21
9.894530E-02
  0
LINE
  8
Layer0$C$L0
 10
0.273635
 20
0.372630
 11
0.156106
 21
0.255101
  0
LINE
  8
Layer0$C$L0
 10
0.381482
 20
0.480477
 11
0.338930
 21
0.437925
  0
LINE
  8
Layer0$C$L0
 10
0.127324
 20
0.240461
 11
-5.673266E-05
 21
0.113080
  0
LINE
  8
Layer0$C$L0
 10
0.259493
 20
0.372630
 11
0.156106
 21
0.269243
  0
LINE
  8
Layer0$C$L0
 10
0.381269
 20
0.494406
 11
0.324788
 21
0.437925
  0
LINE
  8
Layer0$C$L0
 10
0.113182
 20
0.240461
 11
-6.382424E-05
 21
0.127215
  0
LINE
  8
Layer0$C$L0
 10
0.245351
 20
0.372630
 11
0.156106
 21
0.283385
  0
LINE
  8
Layer0$C$L0
 10
0.367127
 20
0.494406
 11
0.310646
 21
0.437925
  0
LINE
  8
Layer0$C$L0
 10
9.903964E-02
 20
0.240461
 11
-7.091582E-05
 21
0.141350
  0
LINE
  8
Layer0$C$L0
 10
0.231209
 20
0.372630
 11
0.156106
 21
0.297527
  0
LINE
  8
Layer0$C$L0
 10
0.352985
 20
0.494406
 11
0.296504
 21
0.437925
  0
LINE
  8
Layer0$C$L0
 10
8.489750E-02
 20
0.240461
 11
-7.800740E-05
 21
0.155485
  0
LINE
  8
Layer0$C$L0
 10
0.217067
 20
0.372630
 11
0.156106
 21
0.311669
  0
LINE
  8
Layer0$C$L0
 10
0.338842
 20
0.494406
 11
0.282361
 21
0.437925
  0
LINE
  8
Layer0$C$L0
 10
7.075536E-02
 20
0.240461
 11
-8.509899E-05
 21
0.169621
  0
LINE
  8
Layer0$C$L0
 10
0.202924
 20
0.372630
 11
0.156106
 21
0.325812
  0
LINE
  8
Layer0$C$L0
 10
0.324700
 20
0.494406
 11
0.268219
 21
0.437925
  0
LINE
  8
Layer0$C$L0
 10
5.661323E-02
 20
0.240461
 11
-9.219057E-05
 21
0.183756
  0
LINE
  8
Layer0$C$L0
 10
0.188782
 20
0.372630
 11
0.156106
 21
0.339954
  0
LINE
  8
Layer0$C$L0
 10
0.310558
 20
0.494406
 11
0.254077
 21
0.437925
  0
LINE
  8
Layer0$C$L0
 10
4.247109E-02
 20
0.240461
 11
-9.928215E-05
 21
0.197891
  0
LINE
  8
Layer0$C$L0
 10
0.174640
 20
0.372630
 11
0.156106
 21
0.354096
  0
LINE
  8
Layer0$C$L0
 10
0.296416
 20
0.494406
 11
0.239935
 21
0.437925
  0
LINE
  8
Layer0$C$L0
 10
2.832896E-02
 20
0.240461
 11
-1.063737E-04
 21
0.212026
  0
LINE
  8
Layer0$C$L0
 10
0.160498
 20
0.372630
 11
0.156106
 21
0.368238
  0
LINE
  8
Layer0$C$L0
 10
0.282274
 20
0.494406
 11
0.225793
 21
0.437925
  0
LINE
  8
Layer0$C$L0
 10
1.418682E-02
 20
0.240461
 11
-1.134653E-04
 21
0.226161
  0
LINE
  8
Layer0$C$L0
 10
0.268132
 20
0.494406
 11
0.211651
 21
0.437925
  0
LINE
  8
Layer0$C$L0
 10
0.253990
 20
0.494406
 11
0.197509
 21
0.437925
  0
LINE
  8
Layer0$C$L0
 10
0.239847
 20
0.494406
 11
0.183367
 21
0.437925
  0
LINE
  8
Layer0$C$L0
 10
0.225705
 20
0.494406
 11
0.169224
 21
0.437925
  0
LINE
  8
Layer0$C$L0
 10
0.211563
 20
0.494406
 11
0.156106
 21
0.438949
  0
LINE
  8
Layer0$C$L0
 10
0.197421
 20
0.494406
 11
0.156106
 21
0.453091
  0
LINE
  8
Layer0$C$L0
 10
0.183279
 20
0.494406
 11
0.156106
 21
0.467233
  0
LINE
  8
Layer0$C$L0
 10
0.169137
 20
0.494406
 11
0.156106
 21
0.481375
  0
ENDBLK
  8
Layer0$C$L0
  0
BLOCK
  8
Layer0$C$L0
  2
B-DOC
 70
     0
 10
0.000000
 20
0.000000
  0
INSERT
  8
Layer0$C$L0
  2
DCG-TITLE-BLOCK
 10
8.000000
 20
-5.000000
  0
INSERT
  8
Layer0$C$L0
  2
DRAWING_HIST_BLOCK
 10
8.000000
 20
5.000000
  0
POINT
  8
Layer0$C$L0
 10
8.000000
 20
-5.000000
  0
POINT
  8
Layer0$C$L0
 10
8.000000
 20
5.000000
  0
LINE
  8
Layer0$C$L0
 10
-8.000000
 20
-5.000000
 11
-8.000000
 21
5.000000
  0
LINE
  8
Layer0$C$L0
 10
-8.000000
 20
5.000000
 11
8.000000
 21
5.000000
  0
LINE
  8
Layer0$C$L0
 10
8.000000
 20
-5.000000
 11
8.000000
 21
5.000000
  0
LINE
  8
Layer0$C$L0
 10
-8.000000
 20
-5.000000
 11
8.000000
 21
-5.000000
  0
POINT
  8
Layer0$C$L0
 10
8.300000
 20
-5.200000
  0
ENDBLK
  8
Layer0$C$L0
  0
BLOCK
  8
Layer0$C$L0
  2
DCG-TITLE-BLOCK
 70
     0
 10
0.000000
 20
0.000000
  0
INSERT
  8
Layer0$C$L0
  2
LOGO
 10
-3.105036
 20
1.343456
 41
0.340000
 42
0.340000
 43
0.340000
  0
TEXT
  8
Layer0$C$L0
 10
-1.4833249759
 20
1.1149167677
 40
3.5000000149E-02
  1
SPECIFIED .XXXX%%p.0005, .XXX%%p.005, .XX%%p.01,
 72
     5
 11
-2.2683880862E-02
 21
1.1149167677
  0
TEXT
  8
Layer0$C$L0
 10
-3.1113255023
 20
1.2028355998
 40
3.5000000149E-02
  1
IS THE PROPERTY OF FERRAZ SHAWMUT. AND IS
 41
1.1040293096
 72
     5
 11
-1.5656844623
 21
1.2028355998
  0
LINE
  8
Layer0$C$L0
 10
-3.150637
 20
1.654465
 11
0.000000
 21
1.654465
  0
TEXT
  8
Layer0$C$L0
 10
-1.198448
 20
1.377185
 40
5.000000E-02
  1
NEWBURYPORT,MA 01950
 72
     5
 11
-0.211818
 21
1.377185
  0
TEXT
  8
Layer0$C$L0
 10
-1.200938
 20
1.452165
 40
5.000000E-02
  1
374 MERRIMAC STREET
 72
     5
 11
-0.264308
 21
1.452165
  0
TEXT
  8
Layer0$C$L0
 10
-1.203427
 20
1.527144
 40
5.000000E-02
  1
FERRAZ SHAWMUT INC.
 72
     5
 11
-0.266797
 21
1.527144
  0
POINT
  8
Layer0$C$L0
 10
0.000000
 20
0.000000
  0
POINT
  8
Layer120$C$L120
 10
-0.1456414461
 20
8.0999842644E-02
  0
POINT
  8
Layer120$C$L120
 10
-1.0620255184
 20
0.2858586226
  0
POINT
  8
Layer120$C$L120
 10
-0.4885482979
 20
0.4894614220
  0
POINT
  8
Layer120$C$L120
 10
-1.2507713938
 20
0.6652610302
  0
POINT
  8
Layer120$C$L120
 10
-2.3119869833
 20
0.8961435471
  0
POINT
  8
Layer120$C$L120
 10
-3.1133519411
 20
8.0999842645E-02
  0
POINT
  8
Layer120$C$L120
 10
-3.1133519411
 20
0.2858586226
  0
POINT
  8
Layer120$C$L120
 10
-3.1133519411
 20
0.4898028382
  0
POINT
  8
Layer120$C$L120
 10
-3.1133519411
 20
0.6929731377
  0
POINT
  8
Layer120$C$L120
 10
-3.1133519411
 20
0.8961435509
  0
LINE
  8
Layer0$C$L0
 10
-3.1506369114
 20
0.2049996853
 11
0.0000000000
 21
0.2049996853
  0
LINE
  8
Layer0$C$L0
 10
-0.690876
 20
0.827713
 11
-0.629039
 21
0.935236
  0
LINE
  8
Layer0$C$L0
 10
-0.690876
 20
0.827713
 11
-0.712209
 21
0.864807
  0
LINE
  8
Layer0$C$L0
 10
-3.150637
 20
0.000000
 11
-3.150637
 21
1.654465
  0
LINE
  8
Layer0$C$L0
 10
-3.150637
 20
1.019229
 11
-1.517337
 21
1.019229
  0
LINE
  8
Layer0$C$L0
 10
-1.517337
 20
0.409718
 11
-1.517337
 21
1.310696
  0
LINE
  8
Layer0$C$L0
 10
-0.796441
 20
1.547337E-03
 11
-0.796441
 21
0.204718
  0
LINE
  8
Layer0$C$L0
 10
-3.150637
 20
0.409718
 11
1.192093E-07
 21
0.409718
  0
LINE
  8
Layer0$C$L0
 10
-1.517337
 20
0.717634
 11
1.192093E-07
 21
0.717634
  0
LINE
  8
Layer0$C$L0
 10
-3.150637
 20
0.816058
 11
-1.517337
 21
0.816058
  0
LINE
  8
Layer0$C$L0
 10
-3.1506371498
 20
0.6128881165
 11
0.0000000000
 21
0.6128881165
  0
LINE
  8
Layer0$C$L0
 10
-3.1506369114
 20
1.3106956351
 11
-4.4408920985E-16
 21
1.3106956351
  0
LINE
  8
Layer0$C$L0
 10
-1.1149992657
 20
0.2047178745
 11
-1.1149992657
 21
0.4078881165
  0
LINE
  8
Layer0$C$L0
 10
-0.2144436836
 20
-2.3841857910E-07
 11
-0.2144436836
 21
0.2047178745
  0
LINE
  8
Layer0$C$L0
 10
-0.2144436836
 20
0.2047178745
 11
-0.2144436836
 21
1.5473177936E-03
  0
LINE
  8
Layer0$C$L0
 10
-0.576686
 20
0.409719
 11
-0.576686
 21
0.612888
  0
LINE
  8
Layer0$C$L0
 10
-2.3489869833
 20
1.0192289352
 11
-2.3489869833
 21
0.8160588929
  0
POINT
  8
Layer120$C$L120
 10
-0.5964802504
 20
0.1001415923
  0
POINT
  8
Layer120$C$L120
 10
-0.3229685724
 20
0.1001415923
  0
POINT
  8
Layer120$C$L120
 10
-1.4657229185
 20
0.4898028382
  0
TEXT
  8
Layer0$C$L0
 10
-1.4763264413
 20
0.6502609195
 40
2.9999998831E-02
  1
FILE #
 72
     5
 11
-1.3043483719
 21
0.6502609195
  0
TEXT
  8
Layer0$C$L0
 10
-1.4763264409
 20
0.5648881169
 40
2.9999999329E-02
  1
INITIAL RELEASE ECO NO:
 72
     5
 11
-0.7943483800
 21
0.5648881169
  0
TEXT
  8
Layer0$C$L0
 10
-1.0739882655
 20
0.3617175590
 40
2.9999998831E-02
  1
PART N0. (WHEN DIFFERENT THAN DWG.)
 72
     5
 11
-3.2010230061E-02
 21
0.3617175590
  0
TEXT
  8
Layer0$C$L0
 10
-0.7819050552
 20
8.6586988298E-02
 40
3.9999999106E-02
  1
SHT    OF
 72
     5
 11
-0.4326009616
 21
8.6586988298E-02
  0
TEXT
  8
Layer0$C$L0
 10
-0.1576862337
 20
0.1580232826
 40
2.9999998831E-02
  1
REV
 72
     5
 11
-7.5708160819E-02
 21
0.1580232826
  0
TEXT
  8
Layer0$C$L0
 10
-0.535675
 20
0.564888
 40
3.000000E-02
  1
SCALE:
 72
     5
 11
-0.363697
 21
0.564888
  0
TEXT
  8
Layer0$C$L0
 10
-1.4768585872
 20
1.2486563133
 40
3.5000000149E-02
  1
GENERAL NOTES:
 72
     5
 11
-0.9962174963
 21
1.2486563133
  0
TEXT
  8
Layer0$C$L0
 10
-3.1113255023
 20
1.2555406801
 40
3.5000000149E-02
  1
THIS DRAWING AND ALL INFORMATION THERE ON
 41
1.1040293096
 72
     5
 11
-1.5656844623
 21
1.2555406801
  0
TEXT
  8
Layer0$C$L0
 10
-3.1113255023
 20
1.1501305196
 40
3.5000000149E-02
  1
SUBJECT TO RETURN ON DEMAND.  THIS
 41
1.1079143230
 72
     5
 11
-1.8316844537
 21
1.1501305196
  0
TEXT
  8
Layer0$C$L0
 10
-3.1113255023
 20
1.0974254394
 40
3.5000000149E-02
  1
INFORMATION IS CONFIDENTIAL AND MUST NOT
 41
1.1044989266
 72
     5
 11
-1.6036844611
 21
1.0974254394
  0
TEXT
  8
Layer0$C$L0
 10
-3.1113255023
 20
1.0447203592
 40
3.5000000149E-02
  1
BE MADE PUBLIC OR COPIED UNLESS AUTHORIZED.
 41
1.0745857838
 72
     5
 11
-1.5316843934
 21
1.0447203592
  0
TEXT
  8
Layer0$C$L0
 10
-3.1073409390
 20
0.9712289356
 40
2.9999999329E-02
  1
DRAWN BY:   DATE:
 41
1.1791210788
 72
     5
 11
-2.5413628339
 21
0.9712289356
  0
TEXT
  8
Layer0$C$L0
 10
-2.3059759813
 20
0.9712289344
 40
2.9999998831E-02
  1
CHECKED BY:  DATE:
 41
1.1764277059
 72
     5
 11
-1.7059978747
 21
0.9712289344
  0
TEXT
  8
Layer0$C$L0
 10
-3.1073409391
 20
0.7680581580
 40
2.9999998831E-02
  1
ENGINEERING APPROVED:
 41
1.1699635659
 72
     5
 11
-2.4053628269
 21
0.7680581580
  0
TEXT
  8
Layer0$C$L0
 10
-3.1073409391
 20
0.5648881157
 40
2.9999998831E-02
  1
ENGINEERING APPROVED:
 41
1.1699635659
 72
     5
 11
-2.4053628269
 21
0.5648881157
  0
TEXT
  8
Layer0$C$L0
 10
-2.2665598465
 20
0.5648881157
 40
2.9999998831E-02
  1
DATE:
 41
1.3164840732
 72
     5
 11
-2.1085817639
 21
0.5648881157
  0
TEXT
  8
Layer0$C$L0
 10
-2.2665598464
 20
0.7680581592
 40
2.9999999329E-02
  1
DATE:
 41
1.3164840544
 72
     5
 11
-2.1085817634
 21
0.7680581592
  0
TEXT
  8
Layer0$C$L0
 10
-3.107341
 20
0.361718
 40
3.000000E-02
  1
DESCRIPTION
 41
1.206594
 72
     5
 11
-2.745363
 21
0.361718
  0
TEXT
  8
Layer0$C$L0
 10
-3.107341
 20
0.157000
 40
3.000000E-02
  1
DRAWING/PART NUMBER
 41
1.174034
 72
     5
 11
-2.473363
 21
0.157000
  0
TEXT
  8
Layer0$C$L0
 10
-1.4833249759
 20
1.1676218479
 40
3.5000000149E-02
  1
TOLERANCE TO BE APPLIED UNLESS OTHERWISE
 41
1.0473560603
 72
     5
 11
-5.3683947411E-02
 21
1.1676218479
  0
TEXT
  8
Layer0$C$L0
 10
-1.4833249759
 20
1.0622116874
 40
3.5000000149E-02
  1
.X%%p.04, UNSPECIFIED ANGLES %%p1%%d, SPECIFED
 41
0.9077085856
 72
     5
 11
-5.3683947411E-02
 21
1.0622116874
  0
TEXT
  8
Layer0$C$L0
 10
-1.4833249759
 20
1.0095066072
 40
3.5000000149E-02
  1
ANGLES %%p0%%d30'. DIMENSIONS APPLY AFTER
 41
0.9440293053
 72
     5
 11
-0.1616839428
 21
1.0095066072
  0
TEXT
  8
Layer0$C$L0
 10
-1.4833249759
 20
0.9568015270
 40
3.5000000149E-02
  1
PLATING.
 41
1.1332288851
 72
     5
 11
-1.2056838978
 21
0.9568015270
  0
TEXT
  8
Layer0$C$L0
 10
-1.4797773074
 20
0.8844312081
 40
3.5000000149E-02
  1
ALL SURFACES TO BE  125  UNLESS OTHERWISE
 72
     5
 11
-5.4136212554E-02
 21
0.8844312081
  0
TEXT
  8
Layer0$C$L0
 10
-1.4768585872
 20
0.7477937933
 40
3.5000000149E-02
  1
BREAK ALL SHARP EDGES.
 41
1.0634572150
 72
     5
 11
-0.6952175308
 21
0.7477937933
  0
TEXT
  8
Layer0$C$L0
 10
-1.4797773074
 20
0.8252624670
 40
3.5000000149E-02
  1
SPECIFIED.
 41
1.1099716617
 72
     5
 11
-1.1301362325
 21
0.8252624670
  0
ENDBLK
  8
Layer0$C$L0
  0
BLOCK
  8
Layer0$C$L0
  2
LOGO
 70
     0
 10
0.000000
 20
0.000000
  0
LINE
  8
Layer0$C$L0
 10
4.644067
 20
0.318351
 11
4.799984
 21
0.371567
  0
INSERT
  8
Layer0$C$L0
  2
*X0
 10
0.000000
 20
0.000000
  0
INSERT
  8
Layer0$C$L0
  2
*X1
 10
0.000000
 20
0.000000
  0
INSERT
  8
Layer0$C$L0
  2
*X2
 10
0.000000
 20
0.000000
  0
INSERT
  8
Layer0$C$L0
  2
*X3
 10
0.000000
 20
0.000000
  0
INSERT
  8
Layer0$C$L0
  2
*X4
 10
0.000000
 20
0.000000
  0
INSERT
  8
Layer0$C$L0
  2
*X5
 10
0.000000
 20
0.000000
  0
ENDBLK
  8
Layer0$C$L0
  0
BLOCK
  8
Layer0$C$L0
  2
DRAWING_HIST_BLOCK
 70
     0
 10
0.000000
 20
0.000000
  0
POINT
  8
Layer0$C$L0
 10
0.000000
 20
0.000000
  0
LINE
  8
Layer0$C$L0
 10
-3.750000
 20
-0.125000
 11
0.000000
 21
-0.125000
  0
LINE
  8
Layer0$C$L0
 10
-3.750000
 20
-0.125000
 11
-3.750000
 21
0.000000
  0
LINE
  8
Layer0$C$L0
 10
-3.480000
 20
-0.125000
 11
-3.480000
 21
0.000000
  0
LINE
  8
Layer0$C$L0
 10
-2.920000
 20
-0.125000
 11
-2.920000
 21
0.000000
  0
LINE
  8
Layer0$C$L0
 10
-2.560000
 20
-0.125000
 11
-2.560000
 21
0.000000
  0
LINE
  8
Layer0$C$L0
 10
-0.660000
 20
-0.125000
 11
-0.660000
 21
0.000000
  0
LINE
  8
Layer0$C$L0
 10
-0.440000
 20
-0.125000
 11
-0.440000
 21
0.000000
  0
LINE
  8
Layer0$C$L0
 10
-0.2199999988
 20
-0.1250000000
 11
-0.2199999988
 21
0.0000000000
  0
TEXT
  8
Layer0$C$L0
 10
-3.710165
 20
-8.842492E-02
 40
6.200000E-02
  1
REV
 72
     5
 11
-3.540744
 21
-8.842492E-02
  0
TEXT
  8
Layer0$C$L0
 10
-3.395861
 20
-8.842492E-02
 40
6.200000E-02
  1
DATE
 72
     5
 11
-3.164439
 21
-8.842492E-02
  0
TEXT
  8
Layer0$C$L0
 10
-2.837097
 20
-8.842492E-02
 40
6.200000E-02
  1
ECO
 72
     5
 11
-2.667676
 21
-8.842492E-02
  0
TEXT
  8
Layer0$C$L0
 10
-2.048841
 20
-8.842492E-02
 40
6.200000E-02
  1
DESCRIPTION
 72
     5
 11
-1.383420
 21
-8.842492E-02
  0
TEXT
  8
Layer0$C$L0
 10
-0.599460
 20
-9.645067E-02
 40
6.200000E-02
  1
BY
 72
     5
 11
-0.492038
 21
-9.645067E-02
  0
TEXT
  8
Layer0$C$L0
 10
-0.374613
 20
-9.495687E-02
 40
6.200000E-02
  1
CK
 72
     5
 11
-0.267191
 21
-9.495687E-02
  0
TEXT
  8
Layer0$C$L0
 10
-0.1936162094
 20
-9.3750074506E-02
 40
6.2500000000E-02
  1
APP
 72
     5
 11
-2.2828550885E-02
 21
-9.3750074506E-02
  0
ENDBLK
  8
Layer0$C$L0
  0
BLOCK
  8
Layer0$C$L0
  2
SCREWSIDE
 70
     0
 10
0.000000
 20
0.000000
  0
POINT
  8
Layer0$C$L0
 10
0.000000
 20
0.000000
  0
LINE
  8
Layer0$C$L0
 10
-0.148329
 20
5.000019E-02
 11
-0.148329
 21
0.000000
  0
LINE
  8
Layer0$C$L0
 10
0.164671
 20
5.000019E-02
 11
0.164671
 21
0.000000
  0
LINE
  8
Layer0$C$L0
 10
-0.148329
 20
5.000019E-02
 11
0.164671
 21
5.000019E-02
  0
ARC
  8
Layer0$C$L0
 10
8.170843E-03
 20
-8.949614E-02
 40
0.209646
100
AcDbArc
 50
41.712177
 51
84.525736
  0
LINE
  8
Layer0$C$L0
 10
-1.182914E-02
 20
0.100163
 11
-1.182914E-02
 21
0.119194
  0
LINE
  8
Layer0$C$L0
 10
2.817082E-02
 20
0.100163
 11
2.817082E-02
 21
0.119194
  0
LINE
  8
Layer0$C$L0
 10
-1.276183E-02
 20
0.100163
 11
2.817082E-02
 21
0.100163
  0
ARC
  8
Layer0$C$L0
 10
8.170843E-03
 20
-8.949614E-02
 40
0.209646
100
AcDbArc
 50
95.474269
 51
138.287821
  0
ENDBLK
  8
Layer0$C$L0
  0
ENDSEC
  0
SECTION
  2
ENTITIES
  0
INSERT
  8
Layer0$C$L0
  2
B-DOC
 10
9.403783
 20
-3.792018
  0
TEXT
  8
Layer0$C$L0
 10
13.947053
 20
-7.989990
 40
0.125000
  1
92-055
 41
0.955464
 72
     5
 11
14.544218
 21
-7.989990
  0
TEXT
  8
Layer0$C$L0
 10
16.746696
 20
0.758362
 40
0.125000
  1
GO
 72
     5
 11
16.963272
 21
0.758362
  0
TEXT
  8
Layer0$C$L0
 10
16.371696
 20
0.758362
 40
0.125000
  1
BM
 72
     5
 11
16.588272
 21
0.758362
  0
TEXT
  8
Layer0$C$L0
 10
7.028430
 20
0.253281
 40
0.125000
  1
%%c X .125 DP
 72
     5
 11
8.402505
 21
0.253281
  0
TEXT
  8
Layer0$C$L0
 10
14.174911
 20
-0.900048
 40
0.125000
  1
UL
 72
     5
 11
14.391486
 21
-0.900048
  0
TEXT
  8
Layer0$C$L0
 10
13.121696
 20
0.758362
 40
0.125000
  1
5/92
 72
     5
 11
13.588272
 21
0.758362
  0
LINE
  8
Layer0$C$L0
 10
12.135780
 20
-3.951683
 11
12.256062
 21
-3.951683
  0
ARC
  8
Layer0$C$L0
 10
12.195947
 20
-3.971832
 40
0.120529
100
AcDbArc
 50
0.000000
 51
180.000005
  0
INSERT
  8
Layer0$C$L0
  2
SCREWSIDE
 10
11.790792
 20
-4.204832
  0
INSERT
  8
Layer0$C$L0
  2
SCREWSIDE
 10
10.971086
 20
-4.204832
  0
INSERT
  8
Layer0$C$L0
  2
SCREWSIDE
 10
10.150802
 20
-4.204597
  0
INSERT
  8
Layer0$C$L0
  2
SCREWSIDE
 10
5.403864
 20
-4.206900
  0
INSERT
  8
Layer0$C$L0
  2
SCREWSIDE
 10
4.581891
 20
-4.206900
  0
INSERT
  8
Layer0$C$L0
  2
SCREWSIDE
 10
3.763445
 20
-4.206900
  0
TEXT
  8
Layer0$C$L0
 10
3.332267
 20
-7.823468
 40
0.125000
  1
BASE-THERMOPLASTIC-125%%dC RTI
 72
     5
 11
6.798842
 21
-7.823468
  0
TEXT
  8
Layer0$C$L0
 10
11.645263
 20
-0.167208
 40
0.156000
  1
TABLE I
 72
     5
 11
12.695549
 21
-0.167208
  0
TEXT
  8
Layer0$C$L0
 10
2.856418
 20
-8.579228
 40
0.125000
  1
NOTES: UNLESS OTHERWISE SPECIFIED
 72
     5
 11
6.947993
 21
-8.579228
  0
TEXT
  8
Layer0$C$L0
 10
3.318271
 20
-8.033401
 40
0.125000
  1
CONNECTOR-ALUMINUM OR COPPER ALLOY-TIN PLATED.
 72
     5
 11
9.034847
 21
-8.033401
  0
TEXT
  8
Layer0$C$L0
 10
2.954387
 20
-7.641526
 40
0.125000
  1
1. MATL COMPOSITION AND RATING:
 72
     5
 11
6.795962
 21
-7.641526
  0
TEXT
  8
Layer0$C$L0
 10
2.950428
 20
-7.331721
 40
0.125000
  1
2. (1)#4-#14 X (4)#4-#14 3 POLE 600V
 72
     5
 11
7.417003
 21
-7.331721
  0
DIMENSION
  8
Layer0$C$L0
  2
*D0
 10
2.787798
 20
-5.863077
 11
2.787798
 21
-4.900483
  3
DIM1
100
AcDbAlignedDimension
 13
3.358473
 23
-3.854549
 14
3.358473
 24
-5.863077
 50
-90.000015
100
AcDbRotatedDimension
  0
DIMENSION
  8
Layer0$C$L0
  2
*D1
 70
     1
 10
5.883159
 20
-6.369730
 11
4.463072
 21
-6.369730
  3
DIM1
100
AcDbAlignedDimension
 13
3.289939
 23
-5.863077
 14
5.883159
 24
-5.863077
  0
DIMENSION
  8
Layer0$C$L0
  2
*D2
 10
7.381426
 20
-5.863077
 11
7.381426
 21
-4.863028
  3
DIM1
100
AcDbAlignedDimension
 13
5.904007
 23
-3.925077
 14
5.883159
 24
-5.863077
 50
90.000000
100
AcDbRotatedDimension
  0
DIMENSION
  8
Layer0$C$L0
  2
*D3
 70
     1
 10
6.375201
 20
-5.863077
 11
6.375201
 21
-5.343665
  3
DIM1
100
AcDbAlignedDimension
 13
5.560641
 23
-4.978077
 14
5.560641
 24
-5.863077
  0
DIMENSION
  8
Layer0$C$L0
  2
*D4
 70
     1
 10
6.851063
 20
-5.863077
 11
6.851063
 21
-5.082749
  3
DIM1
100
AcDbAlignedDimension
 13
5.560641
 23
-4.633078
 14
5.560641
 24
-5.863077
  0
TEXT
  8
Layer0$C$L0
 10
10.603064
 20
-1.937113
 40
0.125000
  1
#4-#14
 72
     5
 11
11.319639
 21
-1.937113
  0
TEXT
  8
Layer0$C$L0
 10
8.003738
 20
-1.910923
 40
0.125000
  1
#4-#14
 72
     5
 11
8.720314
 21
-1.910923
  0
TEXT
  8
Layer0$C$L0
 10
10.701295
 20
-1.344249
 40
0.125000
  1
RANGE
 72
     5
 11
11.292870
 21
-1.344249
  0
TEXT
  8
Layer0$C$L0
 10
9.260074
 20
-1.344249
 40
0.125000
  1
TORQUE
 72
     5
 11
9.976649
 21
-1.344249
  0
TEXT
  8
Layer0$C$L0
 10
8.905576
 20
-1.640632
 40
0.125000
  1
#4-#6     35
 72
     5
 11
10.372151
 21
-1.640632
  0
TEXT
  8
Layer0$C$L0
 10
8.894187
 20
-1.910923
 40
0.125000
  1
#8        25
 72
     5
 11
10.360762
 21
-1.910923
  0
TEXT
  8
Layer0$C$L0
 10
8.907282
 20
-2.172820
 40
0.125000
  1
#10-#14   20
 72
     5
 11
10.373857
 21
-2.172820
  0
TEXT
  8
Layer0$C$L0
 10
8.907282
 20
-2.467453
 40
0.125000
  1
#4-#6     35
 72
     5
 11
10.373857
 21
-2.467453
  0
TEXT
  8
Layer0$C$L0
 10
8.900735
 20
-2.748992
 40
0.125000
  1
#8        25
 72
     5
 11
10.367310
 21
-2.748992
  0
TEXT
  8
Layer0$C$L0
 10
8.907282
 20
-3.030531
 40
0.125000
  1
#10-#14   20
 72
     5
 11
10.373857
 21
-3.030531
  0
TEXT
  8
Layer0$C$L0
 10
7.964454
 20
-2.755540
 40
0.125000
  1
#4-#14
 72
     5
 11
8.681029
 21
-2.755540
  0
TEXT
  8
Layer0$C$L0
 10
8.527833
 20
-0.763106
 40
0.125000
  1
WIRE RANGE & TORQUE (IN-LBS)
 72
     5
 11
11.994408
 21
-0.763106
  0
TEXT
  8
Layer0$C$L0
 10
8.632439
 20
-1.053677
 40
0.125000
  1
PRIMARY
 72
     5
 11
9.474014
 21
-1.053677
  0
TEXT
  8
Layer0$C$L0
 10
8.051295
 20
-1.344249
 40
0.125000
  1
RANGE
 72
     5
 11
8.642871
 21
-1.344249
  0
TEXT
  8
Layer0$C$L0
 10
7.139479
 20
-2.748993
 40
0.125000
  1
63163
 72
     5
 11
7.731054
 21
-2.748993
  0
TEXT
  8
Layer0$C$L0
 10
7.132931
 20
-1.917470
 40
0.125000
  1
62163
 72
     5
 11
7.724507
 21
-1.917470
  0
TEXT
  8
Layer0$C$L0
 10
7.237694
 20
-1.100170
 40
0.125000
  1
P/N
 72
     5
 11
7.579269
 21
-1.100170
  0
DIMENSION
  8
Layer0$C$L0
  2
*D5
 10
2.726758
 20
-2.679303
 11
2.726758
 21
-3.460886
  3
DIM1
100
AcDbAlignedDimension
 13
3.290066
 23
-2.992303
 14
3.583338
 24
-2.679303
 50
90.000000
100
AcDbRotatedDimension
  0
TEXT
  8
Layer0$C$L0
 10
6.669238
 20
-0.289110
 40
0.125000
  1
6 PLCS
 72
     5
 11
7.385813
 21
-0.289110
  0
TEXT
  8
Layer0$C$L0
 10
6.616494
 20
-2.012038E-02
 40
0.125000
  1
TYP
 72
     5
 11
6.958070
 21
-2.012038E-02
  0
DIMENSION
  8
Layer0$C$L0
  2
*D6
 70
     3
 10
5.485935
 20
-0.365096
 11
6.321133
 21
0.322710
  3
DIM1
100
AcDbDiametricDimension
 15
5.330005
 25
-0.493509
  0
DIMENSION
  8
Layer0$C$L0
  2
*D7
 70
     1
 10
4.587970
 20
0.380628
 11
4.142663
 21
0.380628
  3
DIM1
100
AcDbAlignedDimension
 13
3.767969
 23
-0.242065
 14
4.587970
 24
-0.242065
  0
DIMENSION
  8
Layer0$C$L0
  2
*D8
 70
     1
  1
<>REF.
 10
5.407970
 20
0.881275
 11
4.529449
 21
0.787525
  3
DIM1
100
AcDbAlignedDimension
 13
3.767969
 23
-0.242065
 14
5.407970
 24
-0.242065
  0
DIMENSION
  8
Layer0$C$L0
  2
*D9
 10
3.767969
 20
0.380628
 11
2.694919
 21
0.380628
  3
DIM1
100
AcDbAlignedDimension
 13
3.290066
 23
-0.117303
 14
3.767969
 24
-0.242065
100
AcDbRotatedDimension
  0
DIMENSION
  8
Layer0$C$L0
  2
*D10
 10
2.726758
 20
-0.429302
 11
2.726758
 21
-1.575020
  3
DIM1
100
AcDbAlignedDimension
 13
3.583338
 23
-2.679303
 14
3.571612
 24
-0.429302
 50
-90.000000
100
AcDbRotatedDimension
  0
DIMENSION
  8
Layer0$C$L0
  2
*D11
 70
     1
 10
2.226322
 20
-0.117303
 11
2.226322
 21
-1.399191
  3
DIM1
100
AcDbAlignedDimension
 13
3.290066
 23
-2.992303
 14
3.290066
 24
-0.117303
  0
TEXT
  8
Layer0$C$L0
 10
14.489477
 20
-2.018751
 40
0.125000
  1
XCFR2
 72
     5
 11
15.081052
 21
-2.018751
  0
TEXT
  8
Layer0$C$L0
 10
15.623393
 20
-2.006426
 40
0.125000
  1
LR69363
 72
     5
 11
16.464968
 21
-2.006426
  0
TEXT
  8
Layer0$C$L0
 10
15.501554
 20
-1.344249
 40
0.125000
  1
REPORT NO.
 72
     5
 11
16.718130
 21
-1.344249
  0
TEXT
  8
Layer0$C$L0
 10
15.826995
 20
-0.937449
 40
0.125000
  1
CSA
 72
     5
 11
16.168570
 21
-0.937449
  0
TEXT
  8
Layer0$C$L0
 10
13.330644
 20
-2.030154
 40
0.125000
  1
E73571
 72
     5
 11
14.047219
 21
-2.030154
  0
TEXT
  8
Layer0$C$L0
 10
14.327644
 20
-1.344249
 40
0.125000
  1
GUIDE NO.
 72
     5
 11
15.419220
 21
-1.344249
  0
TEXT
  8
Layer0$C$L0
 10
11.565534
 20
-2.185914
 40
0.125000
  1
#10-#14   20
 72
     5
 11
13.032109
 21
-2.185914
  0
TEXT
  8
Layer0$C$L0
 10
11.558987
 20
-1.897828
 40
0.125000
  1
#8        25
 72
     5
 11
13.025562
 21
-1.897828
  0
TEXT
  8
Layer0$C$L0
 10
11.565534
 20
-1.635931
 40
0.125000
  1
#4-#6     35
 72
     5
 11
13.032109
 21
-1.635931
  0
TEXT
  8
Layer0$C$L0
 10
11.166224
 20
-1.053677
 40
0.125000
  1
SECONDARY
 72
     5
 11
12.257799
 21
-1.053677
  0
TEXT
  8
Layer0$C$L0
 10
11.910073
 20
-1.344249
 40
0.125000
  1
TORQUE
 72
     5
 11
12.626649
 21
-1.344249
  0
TEXT
  8
Layer0$C$L0
 10
13.258340
 20
-1.332626
 40
0.125000
  1
FILE NO.
 72
     5
 11
14.224915
 21
-1.332626
  0
TEXT
  8
Layer0$C$L0
 10
14.120660
 20
0.766001
 40
0.125000
  1
RELEASED
 72
     5
 11
15.087235
 21
0.766001
  0
TEXT
  8
Layer0$C$L0
 10
12.747712
 20
0.754511
 40
0.125000
  1
00
 72
     5
 11
12.964287
 21
0.754511
  0
TEXT
  8
Layer0$C$L0
 10
14.605616
 20
-6.843784
 40
0.125000
  1
P/N 62163 (CU ONLY)
 72
     5
 11
16.947191
 21
-6.843784
  0
TEXT
  8
Layer0$C$L0
 10
14.605616
 20
-7.031284
 40
0.125000
  1
P/N 63163 (CU-AL)
 72
     5
 11
16.697191
 21
-7.031284
  0
DIMENSION
  8
Layer0$C$L0
  2
*D12
  1
<>1.18
 10
9.116935
 20
-4.679832
 11
9.116935
 21
-5.294844
  3
DIM2
100
AcDbAlignedDimension
 13
9.671261
 23
-5.859832
 14
10.143778
 24
-4.679832
 50
-90.000000
100
AcDbRotatedDimension
  0
TEXT
  8
Layer0$C$L0
 10
15.588943
 20
-2.867099
 40
0.125000
  1
LR69363
 72
     5
 11
16.430519
 21
-2.867099
  0
TEXT
  8
Layer0$C$L0
 10
14.526028
 20
-2.867099
 40
0.125000
  1
XCFR2
 72
     5
 11
15.117603
 21
-2.867099
  0
TEXT
  8
Layer0$C$L0
 10
13.346534
 20
-2.867099
 40
0.125000
  1
E73571
 72
     5
 11
14.063109
 21
-2.867099
  0
TEXT
  8
Layer0$C$L0
 10
11.555386
 20
-3.034079
 40
0.125000
  1
#10-#14   20
 72
     5
 11
13.021961
 21
-3.034079
  0
TEXT
  8
Layer0$C$L0
 10
11.552439
 20
-2.755540
 40
0.125000
  1
#8        25
 72
     5
 11
13.019014
 21
-2.755540
  0
TEXT
  8
Layer0$C$L0
 10
11.545892
 20
-2.467453
 40
0.125000
  1
#4-#6     35
 72
     5
 11
13.012467
 21
-2.467453
  0
TEXT
  8
Layer0$C$L0
 10
10.622705
 20
-2.775182
 40
0.125000
  1
#4-#14
 72
     5
 11
11.339281
 21
-2.775182
  0
TEXT
  8
Layer0$C$L0
 10
15.293632
 20
-8.648912
 40
0.125000
  1
05B0306
 72
     5
 11
16.135207
 21
-8.648912
  0
TEXT
  8
Layer0$C$L0
 10
12.160558
 20
-8.648912
 40
0.125000
  1
PDB
 72
     5
 11
12.502133
 21
-8.648912
  0
TEXT
  8
Layer0$C$L0
 10
12.412263
 20
-8.304473
 40
0.125000
  1
GO
 72
     5
 11
12.628838
 21
-8.304473
  0
TEXT
  8
Layer0$C$L0
 10
13.286610
 20
-7.979905
 40
0.125000
  1
4/92
 72
     5
 11
13.753185
 21
-7.979905
  0
TEXT
  8
Layer0$C$L0
 10
12.412263
 20
-7.993153
 40
0.125000
  1
KDS
 72
     5
 11
12.753838
 21
-7.993153
  0
LINE
  8
Layer0$C$L0
 10
3.298358
 20
-3.954946
 11
3.418639
 21
-3.954946
  0
ARC
  8
Layer0$C$L0
 10
3.358473
 20
-3.975077
 40
0.120528
100
AcDbArc
 50
0.000000
 51
180.000005
  0
LINE
  8
Layer0$C$L0
 10
5.077970
 20
-2.055803
 11
5.737970
 21
-2.055803
  0
LINE
  8
Layer0$C$L0
 10
4.257970
 20
-2.055803
 11
4.917970
 21
-2.055803
  0
LINE
  8
Layer0$C$L0
 10
3.437969
 20
-2.055803
 11
4.097970
 21
-2.055803
  0
CIRCLE
  5
3
100
AcDbEntity
  8
Layer0$C$L0
100
AcDbCircle
 10
3.767969
 20
-1.523803
 40
0.131000
  0
CIRCLE
  5
4
100
AcDbEntity
  8
Layer0$C$L0
100
AcDbCircle
 10
4.587970
 20
-1.523803
 40
0.131000
  0
CIRCLE
  5
5
100
AcDbEntity
  8
Layer0$C$L0
100
AcDbCircle
 10
5.407969
 20
-1.523803
 40
0.131000
  0
LINE
  8
Layer0$C$L0
 10
11.706280
 20
-4.456755
 11
11.861275
 21
-4.456754
  0
LINE
  8
Layer0$C$L0
 10
11.670072
 20
-4.506755
 11
11.897483
 21
-4.506754
  0
LINE
  8
Layer0$C$L0
 10
11.670072
 20
-4.556756
 11
11.897483
 21
-4.556755
  0
LINE
  8
Layer0$C$L0
 10
11.670072
 20
-4.606756
 11
11.897483
 21
-4.606755
  0
LINE
  8
Layer0$C$L0
 10
11.897483
 20
-4.606755
 11
11.897483
 21
-4.502909
  0
LINE
  8
Layer0$C$L0
 10
11.670072
 20
-4.606756
 11
11.670072
 21
-4.502909
  0
LINE
  8
Layer0$C$L0
 10
11.670072
 20
-4.606756
 11
11.783777
 21
-4.648141
  0
LINE
  8
Layer0$C$L0
 10
11.783777
 20
-4.648141
 11
11.897483
 21
-4.606755
  0
CIRCLE
  5
6
100
AcDbEntity
  8
Layer0$C$L0
100
AcDbCircle
 10
11.783777
 20
-4.554832
 40
0.125000
  0
CIRCLE
  5
7
100
AcDbEntity
  8
Layer0$C$L0
100
AcDbCircle
 10
10.963778
 20
-4.554832
 40
0.125000
  0
LINE
  8
Layer0$C$L0
 10
10.963778
 20
-4.648141
 11
11.077483
 21
-4.606755
  0
LINE
  8
Layer0$C$L0
 10
10.850072
 20
-4.606756
 11
10.963778
 21
-4.648141
  0
LINE
  8
Layer0$C$L0
 10
10.850072
 20
-4.606756
 11
10.850072
 21
-4.502909
  0
LINE
  8
Layer0$C$L0
 10
11.077483
 20
-4.606755
 11
11.077483
 21
-4.502909
  0
LINE
  8
Layer0$C$L0
 10
10.850072
 20
-4.606756
 11
11.077483
 21
-4.606755
  0
LINE
  8
Layer0$C$L0
 10
10.850072
 20
-4.556756
 11
11.077483
 21
-4.556755
  0
LINE
  8
Layer0$C$L0
 10
10.850072
 20
-4.506755
 11
11.077483
 21
-4.506754
  0
LINE
  8
Layer0$C$L0
 10
10.886280
 20
-4.456755
 11
11.041275
 21
-4.456754
  0
LINE
  8
Layer0$C$L0
 10
10.066280
 20
-4.456755
 11
10.221275
 21
-4.456754
  0
LINE
  8
Layer0$C$L0
 10
10.030072
 20
-4.506755
 11
10.257483
 21
-4.506754
  0
LINE
  8
Layer0$C$L0
 10
10.030072
 20
-4.556756
 11
10.257483
 21
-4.556755
  0
LINE
  8
Layer0$C$L0
 10
10.030072
 20
-4.606756
 11
10.257483
 21
-4.606755
  0
LINE
  8
Layer0$C$L0
 10
10.257483
 20
-4.606755
 11
10.257483
 21
-4.502909
  0
LINE
  8
Layer0$C$L0
 10
10.030072
 20
-4.606756
 11
10.030072
 21
-4.502909
  0
LINE
  8
Layer0$C$L0
 10
10.030072
 20
-4.606756
 11
10.143778
 21
-4.648141
  0
LINE
  8
Layer0$C$L0
 10
10.143778
 20
-4.648141
 11
10.257483
 21
-4.606755
  0
CIRCLE
  5
8
100
AcDbEntity
  8
Layer0$C$L0
100
AcDbCircle
 10
10.143778
 20
-4.554832
 40
0.125000
  0
ARC
  8
Layer0$C$L0
 10
12.286474
 20
-4.396832
 40
3.000000E-02
100
AcDbArc
 50
270.000001
 51
359.999983
  0
LINE
  8
Layer0$C$L0
 10
12.286474
 20
-4.426832
 11
12.258158
 21
-4.426832
  0
LINE
  8
Layer0$C$L0
 10
12.316474
 20
-4.396832
 11
12.316474
 21
-3.971832
  0
LINE
  8
Layer0$C$L0
 10
12.055778
 20
-5.079832
 11
12.130153
 21
-5.079832
  0
LINE
  8
Layer0$C$L0
 10
12.055778
 20
-5.079832
 11
11.522360
 21
-5.079832
  0
LINE
  8
Layer0$C$L0
 10
12.052576
 20
-5.328832
 11
11.526968
 21
-5.328832
  0
LINE
  8
Layer0$C$L0
 10
11.471479
 20
-3.921832
 11
11.290412
 21
-3.921832
  0
LINE
  8
Layer0$C$L0
 10
11.501474
 20
-3.951277
 11
11.534482
 21
-5.734832
  0
LINE
  8
Layer0$C$L0
 10
11.260417
 20
-3.951310
 11
11.237598
 21
-5.262499
  0
LINE
  8
Layer0$C$L0
 10
11.441061
 20
-3.951700
 11
11.448928
 21
-5.734832
  0
LINE
  8
Layer0$C$L0
 10
11.311261
 20
-5.859832
 11
11.320781
 21
-3.951683
  0
ARC
  8
Layer0$C$L0
 10
11.290412
 20
-3.951833
 40
3.000000E-02
100
AcDbArc
 50
89.999996
 51
179.003016
  0
ARC
  8
Layer0$C$L0
 10
11.471479
 20
-3.951833
 40
3.000000E-02
100
AcDbArc
 50
1.060232
 51
89.999996
  0
ARC
  8
Layer0$C$L0
 10
11.411061
 20
-3.951833
 40
3.000000E-02
100
AcDbArc
 50
0.252780
 51
89.999996
  0
ARC
  8
Layer0$C$L0
 10
11.350780
 20
-3.951833
 40
3.000000E-02
100
AcDbArc
 50
89.999996
 51
179.714148
  0
LINE
  8
Layer0$C$L0
 10
11.237576
 20
-5.263832
 11
11.314235
 21
-5.263832
  0
LINE
  8
Layer0$C$L0
 10
12.052576
 20
-5.263832
 11
12.052576
 21
-5.734832
  0
LINE
  8
Layer0$C$L0
 10
12.052576
 20
-5.263832
 11
12.129234
 21
-5.263832
  0
LINE
  8
Layer0$C$L0
 10
12.126261
 20
-5.859832
 11
12.135780
 21
-3.951683
  0
LINE
  8
Layer0$C$L0
 10
12.256062
 20
-3.951700
 11
12.264480
 21
-5.859832
  0
LINE
  8
Layer0$C$L0
 10
12.052576
 20
-5.734832
 11
11.448928
 21
-5.734832
  0
LINE
  8
Layer0$C$L0
 10
12.264480
 20
-5.859832
 11
11.449480
 21
-5.859832
  0
LINE
  8
Layer0$C$L0
 10
12.075418
 20
-4.396832
 11
12.075418
 21
-3.971832
  0
LINE
  8
Layer0$C$L0
 10
12.105417
 20
-4.426832
 11
12.133735
 21
-4.426832
  0
ARC
  8
Layer0$C$L0
 10
12.105417
 20
-4.396832
 40
3.000000E-02
100
AcDbArc
 50
180.000019
 51
270.000001
  0
LINE
  8
Layer0$C$L0
 10
12.113778
 20
-5.079832
 11
12.113778
 21
-4.426832
  0
LINE
  8
Layer0$C$L0
 10
11.444480
 20
-5.859832
 11
10.629479
 21
-5.859832
  0
LINE
  8
Layer0$C$L0
 10
11.232575
 20
-5.734832
 11
10.628928
 21
-5.734832
  0
LINE
  8
Layer0$C$L0
 10
11.232575
 20
-5.263832
 11
11.309235
 21
-5.263832
  0
LINE
  8
Layer0$C$L0
 10
11.232575
 20
-5.263832
 11
11.232575
 21
-5.734832
  0
LINE
  8
Layer0$C$L0
 10
10.417576
 20
-5.263832
 11
10.494234
 21
-5.263832
  0
ARC
  8
Layer0$C$L0
 10
10.530780
 20
-3.951833
 40
3.000000E-02
100
AcDbArc
 50
89.999996
 51
179.714148
  0
ARC
  8
Layer0$C$L0
 10
10.591062
 20
-3.951833
 40
3.000000E-02
100
AcDbArc
 50
0.252780
 51
89.999996
  0
ARC
  8
Layer0$C$L0
 10
10.651480
 20
-3.951833
 40
3.000000E-02
100
AcDbArc
 50
1.060232
 51
89.999996
  0
ARC
  8
Layer0$C$L0
 10
10.470412
 20
-3.951833
 40
3.000000E-02
100
AcDbArc
 50
89.999996
 51
179.003016
  0
LINE
  8
Layer0$C$L0
 10
10.491261
 20
-5.859832
 11
10.500780
 21
-3.951683
  0
LINE
  8
Layer0$C$L0
 10
10.621061
 20
-3.951700
 11
10.628928
 21
-5.734832
  0
LINE
  8
Layer0$C$L0
 10
10.440416
 20
-3.951310
 11
10.417599
 21
-5.262499
  0
LINE
  8
Layer0$C$L0
 10
10.681474
 20
-3.951277
 11
10.714482
 21
-5.734832
  0
LINE
  8
Layer0$C$L0
 10
10.651480
 20
-3.921832
 11
10.470412
 21
-3.921832
  0
LINE
  8
Layer0$C$L0
 10
11.232575
 20
-5.328832
 11
10.706968
 21
-5.328832
  0
LINE
  8
Layer0$C$L0
 10
11.240777
 20
-5.079832
 11
10.702360
 21
-5.079832
  0
LINE
  8
Layer0$C$L0
 10
10.415778
 20
-5.079832
 11
9.882360
 21
-5.079832
  0
LINE
  8
Layer0$C$L0
 10
10.412576
 20
-5.328832
 11
9.886968
 21
-5.328832
  0
LINE
  8
Layer0$C$L0
 10
9.831479
 20
-3.921832
 11
9.650412
 21
-3.921832
  0
LINE
  8
Layer0$C$L0
 10
9.809480
 20
-5.859832
 11
9.671261
 21
-5.859832
  0
LINE
  8
Layer0$C$L0
 10
9.861474
 20
-3.951277
 11
9.894482
 21
-5.734832
  0
LINE
  8
Layer0$C$L0
 10
9.620417
 20
-3.951310
 11
9.597598
 21
-5.262499
  0
LINE
  8
Layer0$C$L0
 10
9.801061
 20
-3.951700
 11
9.808928
 21
-5.734832
  0
LINE
  8
Layer0$C$L0
 10
9.671261
 20
-5.859832
 11
9.680780
 21
-3.951683
  0
ARC
  8
Layer0$C$L0
 10
9.650412
 20
-3.951833
 40
3.000000E-02
100
AcDbArc
 50
89.999996
 51
179.003016
  0
ARC
  8
Layer0$C$L0
 10
9.831479
 20
-3.951833
 40
3.000000E-02
100
AcDbArc
 50
1.060232
 51
89.999996
  0
ARC
  8
Layer0$C$L0
 10
9.771061
 20
-3.951833
 40
3.000000E-02
100
AcDbArc
 50
0.252780
 51
89.999996
  0
ARC
  8
Layer0$C$L0
 10
9.710780
 20
-3.951833
 40
3.000000E-02
100
AcDbArc
 50
89.999996
 51
179.714148
  0
LINE
  8
Layer0$C$L0
 10
9.597575
 20
-5.263832
 11
9.674234
 21
-5.263832
  0
LINE
  8
Layer0$C$L0
 10
10.412576
 20
-5.263832
 11
10.412576
 21
-5.734832
  0
LINE
  8
Layer0$C$L0
 10
10.412576
 20
-5.734832
 11
9.808928
 21
-5.734832
  0
LINE
  8
Layer0$C$L0
 10
10.624480
 20
-5.859832
 11
9.809480
 21
-5.859832
  0
LINE
  8
Layer0$C$L0
 10
12.075418
 20
-4.204832
 11
11.506166
 21
-4.204832
  0
LINE
  8
Layer0$C$L0
 10
11.256004
 20
-4.204832
 11
10.686167
 21
-4.204832
  0
LINE
  8
Layer0$C$L0
 10
10.436005
 20
-4.204832
 11
9.866166
 21
-4.204832
  0
LINE
  8
Layer0$C$L0
 10
5.473782
 20
-4.418186
 11
5.647501
 21
-4.418186
  0
LINE
  8
Layer0$C$L0
 10
5.451043
 20
-4.468186
 11
5.670240
 21
-4.468186
  0
LINE
  8
Layer0$C$L0
 10
5.451043
 20
-4.518187
 11
5.670240
 21
-4.518187
  0
LINE
  8
Layer0$C$L0
 10
5.451043
 20
-4.568187
 11
5.670240
 21
-4.568187
  0
LINE
  8
Layer0$C$L0
 10
5.473782
 20
-4.763186
 11
5.647501
 21
-4.763186
  0
LINE
  8
Layer0$C$L0
 10
5.451043
 20
-4.813187
 11
5.670240
 21
-4.813186
  0
LINE
  8
Layer0$C$L0
 10
5.451043
 20
-4.863187
 11
5.670240
 21
-4.863186
  0
LINE
  8
Layer0$C$L0
 10
5.173782
 20
-4.418186
 11
5.347501
 21
-4.418186
  0
LINE
  8
Layer0$C$L0
 10
5.151042
 20
-4.468186
 11
5.370240
 21
-4.468186
  0
LINE
  8
Layer0$C$L0
 10
5.151042
 20
-4.518187
 11
5.370240
 21
-4.518187
  0
LINE
  8
Layer0$C$L0
 10
5.347501
 20
-4.763186
 11
5.173782
 21
-4.763186
  0
LINE
  8
Layer0$C$L0
 10
5.370240
 20
-4.813186
 11
5.151043
 21
-4.813186
  0
LINE
  8
Layer0$C$L0
 10
5.370240
 20
-4.863186
 11
5.151043
 21
-4.863186
  0
LINE
  8
Layer0$C$L0
 10
5.370240
 20
-4.913187
 11
5.151043
 21
-4.913187
  0
LINE
  8
Layer0$C$L0
 10
5.451043
 20
-4.913187
 11
5.670240
 21
-4.913187
  0
LINE
  8
Layer0$C$L0
 10
5.151042
 20
-4.568187
 11
5.370240
 21
-4.568187
  0
LINE
  8
Layer0$C$L0
 10
5.451043
 20
-4.913187
 11
5.451043
 21
-4.792968
  0
LINE
  8
Layer0$C$L0
 10
5.370240
 20
-4.913187
 11
5.370240
 21
-4.792968
  0
LINE
  8
Layer0$C$L0
 10
5.670240
 20
-4.913187
 11
5.670240
 21
-4.792968
  0
LINE
  8
Layer0$C$L0
 10
5.670240
 20
-4.568187
 11
5.670240
 21
-4.447968
  0
LINE
  8
Layer0$C$L0
 10
5.451043
 20
-4.568187
 11
5.451043
 21
-4.447968
  0
LINE
  8
Layer0$C$L0
 10
5.370240
 20
-4.568187
 11
5.370240
 21
-4.447968
  0
LINE
  8
Layer0$C$L0
 10
5.151042
 20
-4.568187
 11
5.151042
 21
-4.447968
  0
LINE
  8
Layer0$C$L0
 10
5.151043
 20
-4.913187
 11
5.151043
 21
-4.792968
  0
LINE
  8
Layer0$C$L0
 10
5.151043
 20
-4.568187
 11
5.260642
 21
-4.608078
  0
LINE
  8
Layer0$C$L0
 10
5.451043
 20
-4.568187
 11
5.560641
 21
-4.608078
  0
LINE
  8
Layer0$C$L0
 10
5.451043
 20
-4.913187
 11
5.560641
 21
-4.953078
  0
LINE
  8
Layer0$C$L0
 10
5.151043
 20
-4.913187
 11
5.260642
 21
-4.953077
  0
LINE
  8
Layer0$C$L0
 10
5.560641
 20
-4.953077
 11
5.670240
 21
-4.913187
  0
LINE
  8
Layer0$C$L0
 10
5.560642
 20
-4.608078
 11
5.670240
 21
-4.568187
  0
LINE
  8
Layer0$C$L0
 10
5.260641
 20
-4.608078
 11
5.370240
 21
-4.568187
  0
LINE
  8
Layer0$C$L0
 10
5.260642
 20
-4.953077
 11
5.370240
 21
-4.913187
  0
ARC
  8
Layer0$C$L0
 10
5.560641
 20
-4.853077
 40
0.125000
100
AcDbArc
 50
21.235874
 51
336.643632
  0
ARC
  8
Layer0$C$L0
 10
5.560641
 20
-4.508078
 40
0.125000
100
AcDbArc
 50
11.437184
 51
346.442330
  0
CIRCLE
  5
9
100
AcDbEntity
  8
Layer0$C$L0
100
AcDbCircle
 10
5.260642
 20
-4.853077
 40
0.125000
  0
CIRCLE
  5
a
100
AcDbEntity
  8
Layer0$C$L0
100
AcDbCircle
 10
5.260642
 20
-4.508078
 40
0.125000
  0
CIRCLE
  5
b
100
AcDbEntity
  8
Layer0$C$L0
100
AcDbCircle
 10
4.440641
 20
-4.508078
 40
0.125000
  0
CIRCLE
  5
c
100
AcDbEntity
  8
Layer0$C$L0
100
AcDbCircle
 10
4.440641
 20
-4.853077
 40
0.125000
  0
ARC
  8
Layer0$C$L0
 10
4.740642
 20
-4.508078
 40
0.125000
100
AcDbArc
 50
11.437184
 51
346.442330
  0
ARC
  8
Layer0$C$L0
 10
4.740642
 20
-4.853077
 40
0.125000
100
AcDbArc
 50
21.235874
 51
336.643632
  0
LINE
  8
Layer0$C$L0
 10
4.440641
 20
-4.953077
 11
4.550240
 21
-4.913187
  0
LINE
  8
Layer0$C$L0
 10
4.440641
 20
-4.608078
 11
4.550241
 21
-4.568187
  0
LINE
  8
Layer0$C$L0
 10
4.740642
 20
-4.608078
 11
4.850240
 21
-4.568187
  0
LINE
  8
Layer0$C$L0
 10
4.740641
 20
-4.953077
 11
4.850240
 21
-4.913187
  0
LINE
  8
Layer0$C$L0
 10
4.331043
 20
-4.913187
 11
4.440641
 21
-4.953077
  0
LINE
  8
Layer0$C$L0
 10
4.631043
 20
-4.913187
 11
4.740642
 21
-4.953078
  0
LINE
  8
Layer0$C$L0
 10
4.631043
 20
-4.568187
 11
4.740641
 21
-4.608078
  0
LINE
  8
Layer0$C$L0
 10
4.331043
 20
-4.568187
 11
4.440642
 21
-4.608078
  0
LINE
  8
Layer0$C$L0
 10
4.331043
 20
-4.913187
 11
4.331043
 21
-4.792968
  0
LINE
  8
Layer0$C$L0
 10
4.331043
 20
-4.568187
 11
4.331043
 21
-4.447968
  0
LINE
  8
Layer0$C$L0
 10
4.550241
 20
-4.568187
 11
4.550241
 21
-4.447968
  0
LINE
  8
Layer0$C$L0
 10
4.631043
 20
-4.568187
 11
4.631043
 21
-4.447968
  0
LINE
  8
Layer0$C$L0
 10
4.850240
 20
-4.568187
 11
4.850240
 21
-4.447968
  0
LINE
  8
Layer0$C$L0
 10
4.850240
 20
-4.913187
 11
4.850240
 21
-4.792968
  0
LINE
  8
Layer0$C$L0
 10
4.550240
 20
-4.913187
 11
4.550240
 21
-4.792968
  0
LINE
  8
Layer0$C$L0
 10
4.631043
 20
-4.913187
 11
4.631043
 21
-4.792968
  0
LINE
  8
Layer0$C$L0
 10
4.331043
 20
-4.568187
 11
4.550241
 21
-4.568187
  0
LINE
  8
Layer0$C$L0
 10
4.631043
 20
-4.913187
 11
4.850240
 21
-4.913187
  0
LINE
  8
Layer0$C$L0
 10
4.550240
 20
-4.913187
 11
4.331043
 21
-4.913187
  0
LINE
  8
Layer0$C$L0
 10
4.550240
 20
-4.863186
 11
4.331043
 21
-4.863186
  0
LINE
  8
Layer0$C$L0
 10
4.550240
 20
-4.813186
 11
4.331043
 21
-4.813186
  0
LINE
  8
Layer0$C$L0
 10
4.527501
 20
-4.763186
 11
4.353782
 21
-4.763186
  0
LINE
  8
Layer0$C$L0
 10
4.331043
 20
-4.518187
 11
4.550241
 21
-4.518187
  0
LINE
  8
Layer0$C$L0
 10
4.331043
 20
-4.468186
 11
4.550241
 21
-4.468186
  0
LINE
  8
Layer0$C$L0
 10
4.353782
 20
-4.418186
 11
4.527501
 21
-4.418186
  0
LINE
  8
Layer0$C$L0
 10
4.631043
 20
-4.863187
 11
4.850240
 21
-4.863186
  0
LINE
  8
Layer0$C$L0
 10
4.631043
 20
-4.813187
 11
4.850240
 21
-4.813186
  0
LINE
  8
Layer0$C$L0
 10
4.653782
 20
-4.763186
 11
4.827501
 21
-4.763186
  0
LINE
  8
Layer0$C$L0
 10
4.631043
 20
-4.568187
 11
4.850240
 21
-4.568187
  0
LINE
  8
Layer0$C$L0
 10
4.631043
 20
-4.518187
 11
4.850240
 21
-4.518187
  0
LINE
  8
Layer0$C$L0
 10
4.631043
 20
-4.468186
 11
4.850240
 21
-4.468186
  0
LINE
  8
Layer0$C$L0
 10
4.653782
 20
-4.418186
 11
4.827501
 21
-4.418186
  0
LINE
  8
Layer0$C$L0
 10
3.833782
 20
-4.418186
 11
4.007501
 21
-4.418186
  0
LINE
  8
Layer0$C$L0
 10
3.811043
 20
-4.468186
 11
4.030240
 21
-4.468186
  0
LINE
  8
Layer0$C$L0
 10
3.811043
 20
-4.518187
 11
4.030240
 21
-4.518187
  0
LINE
  8
Layer0$C$L0
 10
3.811043
 20
-4.568187
 11
4.030240
 21
-4.568187
  0
LINE
  8
Layer0$C$L0
 10
3.833782
 20
-4.763186
 11
4.007501
 21
-4.763186
  0
LINE
  8
Layer0$C$L0
 10
3.811043
 20
-4.813187
 11
4.030241
 21
-4.813186
  0
LINE
  8
Layer0$C$L0
 10
3.811043
 20
-4.863187
 11
4.030241
 21
-4.863186
  0
LINE
  8
Layer0$C$L0
 10
3.533782
 20
-4.418186
 11
3.707501
 21
-4.418186
  0
LINE
  8
Layer0$C$L0
 10
3.511043
 20
-4.468186
 11
3.730240
 21
-4.468186
  0
LINE
  8
Layer0$C$L0
 10
3.511043
 20
-4.518187
 11
3.730240
 21
-4.518187
  0
LINE
  8
Layer0$C$L0
 10
3.707501
 20
-4.763186
 11
3.533782
 21
-4.763186
  0
LINE
  8
Layer0$C$L0
 10
3.730240
 20
-4.813186
 11
3.511043
 21
-4.813186
  0
LINE
  8
Layer0$C$L0
 10
3.730240
 20
-4.863186
 11
3.511043
 21
-4.863186
  0
LINE
  8
Layer0$C$L0
 10
3.730240
 20
-4.913187
 11
3.511043
 21
-4.913187
  0
LINE
  8
Layer0$C$L0
 10
3.811043
 20
-4.913187
 11
4.030241
 21
-4.913187
  0
LINE
  8
Layer0$C$L0
 10
3.511043
 20
-4.568187
 11
3.730240
 21
-4.568187
  0
LINE
  8
Layer0$C$L0
 10
3.811043
 20
-4.913187
 11
3.811043
 21
-4.792968
  0
LINE
  8
Layer0$C$L0
 10
3.730240
 20
-4.913187
 11
3.730240
 21
-4.792968
  0
LINE
  8
Layer0$C$L0
 10
4.030241
 20
-4.913187
 11
4.030241
 21
-4.792968
  0
LINE
  8
Layer0$C$L0
 10
4.030240
 20
-4.568187
 11
4.030240
 21
-4.447968
  0
LINE
  8
Layer0$C$L0
 10
3.811043
 20
-4.568187
 11
3.811043
 21
-4.447968
  0
LINE
  8
Layer0$C$L0
 10
3.730240
 20
-4.568187
 11
3.730240
 21
-4.447968
  0
LINE
  8
Layer0$C$L0
 10
3.511043
 20
-4.568187
 11
3.511043
 21
-4.447968
  0
LINE
  8
Layer0$C$L0
 10
3.511043
 20
-4.913187
 11
3.511043
 21
-4.792968
  0
LINE
  8
Layer0$C$L0
 10
3.511043
 20
-4.568187
 11
3.620642
 21
-4.608078
  0
LINE
  8
Layer0$C$L0
 10
3.811043
 20
-4.568187
 11
3.920641
 21
-4.608078
  0
LINE
  8
Layer0$C$L0
 10
3.811043
 20
-4.913187
 11
3.920641
 21
-4.953078
  0
LINE
  8
Layer0$C$L0
 10
3.511043
 20
-4.913187
 11
3.620642
 21
-4.953077
  0
LINE
  8
Layer0$C$L0
 10
3.920641
 20
-4.953077
 11
4.030241
 21
-4.913187
  0
LINE
  8
Layer0$C$L0
 10
3.920642
 20
-4.608078
 11
4.030240
 21
-4.568187
  0
LINE
  8
Layer0$C$L0
 10
3.620641
 20
-4.608078
 11
3.730240
 21
-4.568187
  0
LINE
  8
Layer0$C$L0
 10
3.620642
 20
-4.953077
 11
3.730240
 21
-4.913187
  0
ARC
  8
Layer0$C$L0
 10
3.920641
 20
-4.853077
 40
0.125000
100
AcDbArc
 50
21.235874
 51
336.643632
  0
ARC
  8
Layer0$C$L0
 10
3.920641
 20
-4.508078
 40
0.125000
100
AcDbArc
 50
11.437184
 51
346.442330
  0
CIRCLE
  5
d
100
AcDbEntity
  8
Layer0$C$L0
100
AcDbCircle
 10
3.620642
 20
-4.853077
 40
0.125000
  0
CIRCLE
  5
e
100
AcDbEntity
  8
Layer0$C$L0
100
AcDbCircle
 10
3.620642
 20
-4.508078
 40
0.125000
  0
LINE
  8
Layer0$C$L0
 10
5.648849
 20
-2.298328
 11
5.502444
 21
-2.151923
  0
LINE
  8
Layer0$C$L0
 10
5.354937
 20
-1.612191
 11
5.407969
 21
-1.559158
  0
LINE
  8
Layer0$C$L0
 10
5.496358
 20
-1.576836
 11
5.443325
 21
-1.523803
  0
LINE
  8
Layer0$C$L0
 10
5.461002
 20
-1.612191
 11
5.407969
 21
-1.559158
  0
LINE
  8
Layer0$C$L0
 10
5.319581
 20
-1.576836
 11
5.372614
 21
-1.523803
  0
LINE
  8
Layer0$C$L0
 10
5.354937
 20
-1.612191
 11
5.319581
 21
-1.576836
  0
LINE
  8
Layer0$C$L0
 10
5.496358
 20
-1.470770
 11
5.461003
 21
-1.435415
  0
LINE
  8
Layer0$C$L0
 10
5.461002
 20
-1.612192
 11
5.496358
 21
-1.576836
  0
LINE
  8
Layer0$C$L0
 10
5.319581
 20
-1.470770
 11
5.354937
 21
-1.435415
  0
LINE
  8
Layer0$C$L0
 10
5.502482
 20
-1.038961
 11
5.348812
 21
-0.885290
  0
LINE
  8
Layer0$C$L0
 10
5.467127
 20
-1.074316
 11
5.313457
 21
-0.920646
  0
LINE
  8
Layer0$C$L0
 10
5.443325
 20
-1.523803
 11
5.496358
 21
-1.470770
  0
LINE
  8
Layer0$C$L0
 10
5.407969
 20
-1.488448
 11
5.461003
 21
-1.435415
  0
LINE
  8
Layer0$C$L0
 10
5.372614
 20
-1.523803
 11
5.319581
 21
-1.470770
  0
LINE
  8
Layer0$C$L0
 10
5.407969
 20
-1.488448
 11
5.354937
 21
-1.435415
  0
LINE
  8
Layer0$C$L0
 10
5.313494
 20
-2.333683
 11
5.167089
 21
-2.187278
  0
LINE
  8
Layer0$C$L0
 10
5.348850
 20
-2.298328
 11
5.202445
 21
-2.151923
  0
LINE
  8
Layer0$C$L0
 10
5.613494
 20
-2.333683
 11
5.467089
 21
-2.187278
  0
LINE
  8
Layer0$C$L0
 10
5.648850
 20
-1.924328
 11
5.502444
 21
-1.777923
  0
LINE
  8
Layer0$C$L0
 10
5.613494
 20
-1.959683
 11
5.467089
 21
-1.813278
  0
LINE
  8
Layer0$C$L0
 10
5.348850
 20
-1.924328
 11
5.202445
 21
-1.777923
  0
LINE
  8
Layer0$C$L0
 10
5.313494
 20
-1.959683
 11
5.167089
 21
-1.813278
  0
CIRCLE
  5
f
100
AcDbEntity
  8
Layer0$C$L0
100
AcDbCircle
 10
5.557970
 20
-2.242803
 40
0.106500
  0
CIRCLE
  5
10
100
AcDbEntity
  8
Layer0$C$L0
100
AcDbCircle
 10
5.257969
 20
-2.242803
 40
0.106500
  0
CIRCLE
  5
11
100
AcDbEntity
  8
Layer0$C$L0
100
AcDbCircle
 10
5.557970
 20
-1.868803
 40
0.106500
  0
CIRCLE
  5
12
100
AcDbEntity
  8
Layer0$C$L0
100
AcDbCircle
 10
5.257969
 20
-1.868803
 40
0.106500
  0
CIRCLE
  5
13
100
AcDbEntity
  8
Layer0$C$L0
100
AcDbCircle
 10
5.407969
 20
-0.979803
 40
0.111500
  0
LINE
  8
Layer0$C$L0
 10
5.077970
 20
-1.681803
 11
5.737969
 21
-1.681803
  0
LINE
  8
Layer0$C$L0
 10
4.257970
 20
-1.681803
 11
4.917970
 21
-1.681803
  0
CIRCLE
  5
14
100
AcDbEntity
  8
Layer0$C$L0
100
AcDbCircle
 10
4.587970
 20
-0.979803
 40
0.111500
  0
CIRCLE
  5
15
100
AcDbEntity
  8
Layer0$C$L0
100
AcDbCircle
 10
4.437970
 20
-1.868803
 40
0.106500
  0
CIRCLE
  5
16
100
AcDbEntity
  8
Layer0$C$L0
100
AcDbCircle
 10
4.737969
 20
-1.868803
 40
0.106500
  0
CIRCLE
  5
17
100
AcDbEntity
  8
Layer0$C$L0
100
AcDbCircle
 10
4.437970
 20
-2.242803
 40
0.106500
  0
CIRCLE
  5
18
100
AcDbEntity
  8
Layer0$C$L0
100
AcDbCircle
 10
4.737969
 20
-2.242803
 40
0.106500
  0
LINE
  8
Layer0$C$L0
 10
4.493495
 20
-1.959683
 11
4.347089
 21
-1.813278
  0
LINE
  8
Layer0$C$L0
 10
4.528850
 20
-1.924328
 11
4.382444
 21
-1.777923
  0
LINE
  8
Layer0$C$L0
 10
4.793495
 20
-1.959683
 11
4.647089
 21
-1.813278
  0
LINE
  8
Layer0$C$L0
 10
4.828850
 20
-1.924328
 11
4.682445
 21
-1.777923
  0
LINE
  8
Layer0$C$L0
 10
4.793494
 20
-2.333683
 11
4.647089
 21
-2.187278
  0
LINE
  8
Layer0$C$L0
 10
4.528850
 20
-2.298328
 11
4.382444
 21
-2.151923
  0
LINE
  8
Layer0$C$L0
 10
4.493495
 20
-2.333683
 11
4.347089
 21
-2.187278
  0
LINE
  8
Layer0$C$L0
 10
4.587970
 20
-1.488448
 11
4.534936
 21
-1.435415
  0
LINE
  8
Layer0$C$L0
 10
4.552614
 20
-1.523803
 11
4.499581
 21
-1.470770
  0
LINE
  8
Layer0$C$L0
 10
4.587970
 20
-1.488448
 11
4.641003
 21
-1.435415
  0
LINE
  8
Layer0$C$L0
 10
4.623325
 20
-1.523803
 11
4.676358
 21
-1.470770
  0
LINE
  8
Layer0$C$L0
 10
4.647127
 20
-1.074316
 11
4.493457
 21
-0.920646
  0
LINE
  8
Layer0$C$L0
 10
4.682482
 20
-1.038961
 11
4.528812
 21
-0.885290
  0
LINE
  8
Layer0$C$L0
 10
4.499581
 20
-1.470770
 11
4.534936
 21
-1.435415
  0
LINE
  8
Layer0$C$L0
 10
4.641003
 20
-1.612192
 11
4.676358
 21
-1.576836
  0
LINE
  8
Layer0$C$L0
 10
4.676358
 20
-1.470770
 11
4.641003
 21
-1.435415
  0
LINE
  8
Layer0$C$L0
 10
4.534936
 20
-1.612191
 11
4.499581
 21
-1.576836
  0
LINE
  8
Layer0$C$L0
 10
4.499581
 20
-1.576836
 11
4.552614
 21
-1.523803
  0
LINE
  8
Layer0$C$L0
 10
4.641003
 20
-1.612191
 11
4.587969
 21
-1.559158
  0
LINE
  8
Layer0$C$L0
 10
4.676358
 20
-1.576836
 11
4.623325
 21
-1.523803
  0
LINE
  8
Layer0$C$L0
 10
4.534936
 20
-1.612191
 11
4.587969
 21
-1.559158
  0
LINE
  8
Layer0$C$L0
 10
4.828850
 20
-2.298328
 11
4.682445
 21
-2.151923
  0
LINE
  8
Layer0$C$L0
 10
4.008850
 20
-2.298328
 11
3.862444
 21
-2.151923
  0
LINE
  8
Layer0$C$L0
 10
3.714936
 20
-1.612191
 11
3.767969
 21
-1.559158
  0
LINE
  8
Layer0$C$L0
 10
3.856358
 20
-1.576836
 11
3.803324
 21
-1.523803
  0
LINE
  8
Layer0$C$L0
 10
3.821002
 20
-1.612191
 11
3.767969
 21
-1.559158
  0
LINE
  8
Layer0$C$L0
 10
3.679581
 20
-1.576836
 11
3.732614
 21
-1.523803
  0
LINE
  8
Layer0$C$L0
 10
3.714936
 20
-1.612191
 11
3.679581
 21
-1.576836
  0
LINE
  8
Layer0$C$L0
 10
3.856358
 20
-1.470770
 11
3.821003
 21
-1.435415
  0
LINE
  8
Layer0$C$L0
 10
3.821002
 20
-1.612192
 11
3.856358
 21
-1.576836
  0
LINE
  8
Layer0$C$L0
 10
3.679581
 20
-1.470770
 11
3.714936
 21
-1.435415
  0
LINE
  8
Layer0$C$L0
 10
3.862482
 20
-1.038961
 11
3.708812
 21
-0.885290
  0
LINE
  8
Layer0$C$L0
 10
3.827127
 20
-1.074316
 11
3.673457
 21
-0.920646
  0
LINE
  8
Layer0$C$L0
 10
3.803324
 20
-1.523803
 11
3.856358
 21
-1.470770
  0
LINE
  8
Layer0$C$L0
 10
3.767969
 20
-1.488448
 11
3.821003
 21
-1.435415
  0
LINE
  8
Layer0$C$L0
 10
3.732614
 20
-1.523803
 11
3.679581
 21
-1.470770
  0
LINE
  8
Layer0$C$L0
 10
3.767969
 20
-1.488448
 11
3.714936
 21
-1.435415
  0
LINE
  8
Layer0$C$L0
 10
3.673494
 20
-2.333683
 11
3.527089
 21
-2.187278
  0
LINE
  8
Layer0$C$L0
 10
3.708850
 20
-2.298328
 11
3.562444
 21
-2.151923
  0
LINE
  8
Layer0$C$L0
 10
3.973494
 20
-2.333683
 11
3.827089
 21
-2.187278
  0
LINE
  8
Layer0$C$L0
 10
4.008850
 20
-1.924328
 11
3.862444
 21
-1.777923
  0
LINE
  8
Layer0$C$L0
 10
3.973494
 20
-1.959683
 11
3.827089
 21
-1.813278
  0
LINE
  8
Layer0$C$L0
 10
3.708850
 20
-1.924328
 11
3.562444
 21
-1.777923
  0
LINE
  8
Layer0$C$L0
 10
3.673494
 20
-1.959683
 11
3.527089
 21
-1.813278
  0
CIRCLE
  5
19
100
AcDbEntity
  8
Layer0$C$L0
100
AcDbCircle
 10
3.917969
 20
-2.242803
 40
0.106500
  0
CIRCLE
  5
1a
100
AcDbEntity
  8
Layer0$C$L0
100
AcDbCircle
 10
3.617969
 20
-2.242803
 40
0.106500
  0
CIRCLE
  5
1b
100
AcDbEntity
  8
Layer0$C$L0
100
AcDbCircle
 10
3.917969
 20
-1.868803
 40
0.106500
  0
CIRCLE
  5
1c
100
AcDbEntity
  8
Layer0$C$L0
100
AcDbCircle
 10
3.617969
 20
-1.868803
 40
0.106500
  0
CIRCLE
  5
1d
100
AcDbEntity
  8
Layer0$C$L0
100
AcDbCircle
 10
3.767969
 20
-0.979803
 40
0.111500
  0
LINE
  8
Layer0$C$L0
 10
3.437969
 20
-1.681803
 11
4.097970
 21
-1.681803
  0
LINE
  8
Layer0$C$L0
 10
8.848249
 20
-2.546355
 11
10.498249
 21
-2.546355
  0
LINE
  8
Layer0$C$L0
 10
5.118415
 20
-4.208077
 11
5.688253
 21
-4.208077
  0
LINE
  8
Layer0$C$L0
 10
4.298415
 20
-4.208077
 11
4.868253
 21
-4.208077
  0
LINE
  8
Layer0$C$L0
 10
3.479002
 20
-4.208077
 11
4.048253
 21
-4.208077
  0
LINE
  8
Layer0$C$L0
 10
11.498249
 20
-3.106355
 11
11.498249
 21
-1.126355
  0
LINE
  8
Layer0$C$L0
 10
11.498249
 20
-1.706355
 11
13.148249
 21
-1.706355
  0
LINE
  8
Layer0$C$L0
 10
11.498249
 20
-1.986355
 11
13.148249
 21
-1.986355
  0
LINE
  8
Layer0$C$L0
 10
10.498249
 20
-2.266355
 11
16.783255
 21
-2.266355
  0
LINE
  8
Layer0$C$L0
 10
11.498249
 20
-2.826355
 11
13.148249
 21
-2.826355
  0
LINE
  8
Layer0$C$L0
 10
16.783255
 20
-3.106355
 11
16.783255
 21
-0.566355
  0
LINE
  8
Layer0$C$L0
 10
10.498249
 20
-3.106355
 11
10.498249
 21
-0.846355
  0
LINE
  8
Layer0$C$L0
 10
8.848249
 20
-3.106355
 11
8.848249
 21
-1.126355
  0
LINE
  8
Layer0$C$L0
 10
7.043250
 20
-1.426355
 11
16.783255
 21
-1.426355
  0
LINE
  8
Layer0$C$L0
 10
4.929940
 20
-5.863077
 11
5.744940
 21
-5.863077
  0
LINE
  8
Layer0$C$L0
 10
5.141844
 20
-5.738077
 11
5.745492
 21
-5.738077
  0
LINE
  8
Layer0$C$L0
 10
5.141844
 20
-5.267077
 11
5.141844
 21
-5.738077
  0
LINE
  8
Layer0$C$L0
 10
5.956844
 20
-5.267077
 11
5.880185
 21
-5.267077
  0
ARC
  8
Layer0$C$L0
 10
5.843639
 20
-3.955078
 40
3.000000E-02
100
AcDbArc
 50
0.285851
 51
90.000003
  0
ARC
  8
Layer0$C$L0
 10
5.783358
 20
-3.955078
 40
3.000000E-02
100
AcDbArc
 50
90.000003
 51
179.747220
  0
ARC
  8
Layer0$C$L0
 10
5.722940
 20
-3.955078
 40
3.000000E-02
100
AcDbArc
 50
90.000003
 51
178.939768
  0
ARC
  8
Layer0$C$L0
 10
5.904007
 20
-3.955078
 40
3.000000E-02
100
AcDbArc
 50
0.996987
 51
90.000003
  0
LINE
  8
Layer0$C$L0
 10
5.883159
 20
-5.863077
 11
5.873639
 21
-3.954928
  0
LINE
  8
Layer0$C$L0
 10
5.753358
 20
-3.954946
 11
5.745492
 21
-5.738077
  0
LINE
  8
Layer0$C$L0
 10
5.934003
 20
-3.954556
 11
5.956821
 21
-5.265744
  0
LINE
  8
Layer0$C$L0
 10
5.692945
 20
-3.954522
 11
5.659937
 21
-5.738077
  0
LINE
  8
Layer0$C$L0
 10
5.744940
 20
-5.863077
 11
5.883159
 21
-5.863077
  0
LINE
  8
Layer0$C$L0
 10
5.722940
 20
-3.925077
 11
5.904007
 21
-3.925077
  0
LINE
  8
Layer0$C$L0
 10
5.141844
 20
-5.332077
 11
5.667451
 21
-5.332077
  0
LINE
  8
Layer0$C$L0
 10
5.138642
 20
-5.083077
 11
5.672060
 21
-5.083077
  0
LINE
  8
Layer0$C$L0
 10
5.077970
 20
-0.679803
 11
5.737970
 21
-0.679803
  0
LINE
  8
Layer0$C$L0
 10
5.077970
 20
-2.429803
 11
5.737970
 21
-2.429803
  0
LINE
  8
Layer0$C$L0
 10
5.737970
 20
-0.679803
 11
5.737970
 21
-2.429803
  0
LINE
  8
Layer0$C$L0
 10
5.077970
 20
-0.679803
 11
5.077970
 21
-2.429803
  0
LINE
  8
Layer0$C$L0
 10
5.141970
 20
-0.679803
 11
5.141970
 21
-0.117303
  0
LINE
  8
Layer0$C$L0
 10
5.881970
 20
-2.992303
 11
5.745066
 21
-2.992303
  0
ARC
  8
Layer0$C$L0
 10
5.813616
 20
-2.800803
 40
0.143000
100
AcDbArc
 50
118.644361
 51
169.334883
  0
ARC
  8
Layer0$C$L0
 10
5.813616
 20
-2.800803
 40
0.143000
100
AcDbArc
 50
169.334938
 51
204.976777
  0
ARC
  8
Layer0$C$L0
 10
5.813616
 20
-2.800803
 40
0.143000
100
AcDbArc
 50
298.554699
 51
334.952777
  0
ARC
  8
Layer0$C$L0
 10
5.813616
 20
-2.800803
 40
0.143000
100
AcDbArc
 50
334.952777
 51
370.872688
  0
LINE
  8
Layer0$C$L0
 10
4.930066
 20
-2.992303
 11
5.745066
 21
-2.992303
  0
LINE
  8
Layer0$C$L0
 10
4.930066
 20
-0.117303
 11
5.883285
 21
-0.117303
  0
CIRCLE
  5
1e
100
AcDbEntity
  8
Layer0$C$L0
100
AcDbCircle
 10
5.407970
 20
-2.679303
 40
0.101000
  0
CIRCLE
  5
1f
100
AcDbEntity
  8
Layer0$C$L0
100
AcDbCircle
 10
5.407970
 20
-0.429302
 40
0.101000
  0
LINE
  8
Layer0$C$L0
 10
5.881970
 20
-2.992303
 11
5.881970
 21
-2.926409
  0
LINE
  8
Layer0$C$L0
 10
5.881970
 20
-2.675198
 11
5.881970
 21
-0.434408
  0
LINE
  8
Layer0$C$L0
 10
5.881970
 20
-2.992303
 11
5.881970
 21
-2.926409
  0
LINE
  8
Layer0$C$L0
 10
5.141970
 20
-2.992303
 11
5.141970
 21
-2.429803
  0
LINE
  8
Layer0$C$L0
 10
5.883285
 20
-0.183922
 11
5.883285
 21
-0.117303
  0
CIRCLE
  5
20
100
AcDbEntity
  8
Layer0$C$L0
100
AcDbCircle
 10
5.813616
 20
-2.800803
 40
5.554999E-02
  0
CIRCLE
  5
21
100
AcDbEntity
  8
Layer0$C$L0
100
AcDbCircle
 10
5.813616
 20
-0.308803
 40
5.554999E-02
  0
LINE
  8
Layer0$C$L0
 10
5.745066
 20
-0.183304
 11
5.745066
 21
-0.117303
  0
LINE
  8
Layer0$C$L0
 10
5.873616
 20
-0.204880
 11
5.873616
 21
-0.117303
  0
LINE
  8
Layer0$C$L0
 10
5.753616
 20
-0.204880
 11
5.753616
 21
-0.117303
  0
LINE
  8
Layer0$C$L0
 10
5.873616
 20
-2.696881
 11
5.873616
 21
-0.412726
  0
ARC
  8
Layer0$C$L0
 10
5.813616
 20
-0.308803
 40
0.120000
100
AcDbArc
 50
299.999967
 51
420.000025
  0
ARC
  8
Layer0$C$L0
 10
5.813616
 20
-0.308803
 40
0.143000
100
AcDbArc
 50
298.554699
 51
420.843663
  0
LINE
  8
Layer0$C$L0
 10
5.753616
 20
-2.696881
 11
5.753616
 21
-0.412726
  0
LINE
  8
Layer0$C$L0
 10
5.745066
 20
-2.675305
 11
5.745066
 21
-0.434302
  0
ARC
  8
Layer0$C$L0
 10
5.813616
 20
-0.308803
 40
0.120000
100
AcDbArc
 50
119.999990
 51
240.000034
  0
ARC
  8
Layer0$C$L0
 10
5.813616
 20
-0.308803
 40
0.143000
100
AcDbArc
 50
118.644361
 51
241.355663
  0
ARC
  8
Layer0$C$L0
 10
5.813616
 20
-2.800803
 40
0.143000
100
AcDbArc
 50
204.976777
 51
241.355635
  0
ARC
  8
Layer0$C$L0
 10
5.813616
 20
-2.800803
 40
0.120000
100
AcDbArc
 50
119.999990
 51
240.000034
  0
ARC
  8
Layer0$C$L0
 10
5.813616
 20
-2.800803
 40
0.120000
100
AcDbArc
 50
299.999967
 51
420.000025
  0
ARC
  8
Layer0$C$L0
 10
5.813616
 20
-2.800803
 40
0.143000
100
AcDbArc
 50
10.872696
 51
61.445304
  0
LINE
  8
Layer0$C$L0
 10
5.873616
 20
-2.992303
 11
5.873616
 21
-2.904726
  0
LINE
  8
Layer0$C$L0
 10
5.753616
 20
-2.992303
 11
5.753616
 21
-2.904726
  0
LINE
  8
Layer0$C$L0
 10
5.745066
 20
-2.992303
 11
5.745066
 21
-2.926302
  0
LINE
  8
Layer0$C$L0
 10
5.407970
 20
-2.487664
 11
5.407970
 21
-2.915677
  0
LINE
  8
Layer0$C$L0
 10
5.407970
 20
-0.242065
 11
5.407970
 21
-0.611446
  0
LINE
  8
Layer0$C$L0
 10
5.211612
 20
-0.429302
 11
5.569266
 21
-0.429302
  0
LINE
  8
Layer0$C$L0
 10
5.223339
 20
-2.679303
 11
5.598582
 21
-2.679303
  0
LINE
  8
Layer0$C$L0
 10
4.318642
 20
-5.083077
 11
4.313642
 21
-5.083077
  0
LINE
  8
Layer0$C$L0
 10
4.318642
 20
-5.083077
 11
4.852059
 21
-5.083077
  0
LINE
  8
Layer0$C$L0
 10
4.321844
 20
-5.332077
 11
4.847451
 21
-5.332077
  0
LINE
  8
Layer0$C$L0
 10
4.902940
 20
-3.925077
 11
5.084007
 21
-3.925077
  0
LINE
  8
Layer0$C$L0
 10
4.924940
 20
-5.863077
 11
5.063159
 21
-5.863077
  0
LINE
  8
Layer0$C$L0
 10
4.872945
 20
-3.954522
 11
4.839937
 21
-5.738077
  0
LINE
  8
Layer0$C$L0
 10
5.114003
 20
-3.954556
 11
5.136821
 21
-5.265744
  0
LINE
  8
Layer0$C$L0
 10
4.933358
 20
-3.954946
 11
4.925491
 21
-5.738077
  0
LINE
  8
Layer0$C$L0
 10
5.063159
 20
-5.863077
 11
5.053639
 21
-3.954928
  0
ARC
  8
Layer0$C$L0
 10
5.084007
 20
-3.955078
 40
3.000000E-02
100
AcDbArc
 50
0.996987
 51
90.000003
  0
ARC
  8
Layer0$C$L0
 10
4.902940
 20
-3.955078
 40
3.000000E-02
100
AcDbArc
 50
90.000003
 51
178.939768
  0
ARC
  8
Layer0$C$L0
 10
4.963358
 20
-3.955078
 40
3.000000E-02
100
AcDbArc
 50
90.000003
 51
179.747220
  0
ARC
  8
Layer0$C$L0
 10
5.023639
 20
-3.955078
 40
3.000000E-02
100
AcDbArc
 50
0.285851
 51
90.000003
  0
LINE
  8
Layer0$C$L0
 10
5.136844
 20
-5.267077
 11
5.060185
 21
-5.267077
  0
LINE
  8
Layer0$C$L0
 10
4.321844
 20
-5.267077
 11
4.321844
 21
-5.738077
  0
LINE
  8
Layer0$C$L0
 10
4.321844
 20
-5.267077
 11
4.245185
 21
-5.267077
  0
LINE
  8
Layer0$C$L0
 10
4.321844
 20
-5.738077
 11
4.925491
 21
-5.738077
  0
LINE
  8
Layer0$C$L0
 10
4.109940
 20
-5.863077
 11
4.924940
 21
-5.863077
  0
LINE
  8
Layer0$C$L0
 10
4.403338
 20
-2.679303
 11
4.778582
 21
-2.679303
  0
LINE
  8
Layer0$C$L0
 10
4.391612
 20
-0.429302
 11
4.749266
 21
-0.429302
  0
LINE
  8
Layer0$C$L0
 10
4.587970
 20
-0.242065
 11
4.587970
 21
-0.611446
  0
LINE
  8
Layer0$C$L0
 10
4.587970
 20
-2.487664
 11
4.587970
 21
-2.915677
  0
LINE
  8
Layer0$C$L0
 10
4.925066
 20
-2.992303
 11
4.925066
 21
-2.926302
  0
LINE
  8
Layer0$C$L0
 10
4.933616
 20
-2.992303
 11
4.933616
 21
-2.904726
  0
LINE
  8
Layer0$C$L0
 10
5.053616
 20
-2.992303
 11
5.053616
 21
-2.904726
  0
ARC
  8
Layer0$C$L0
 10
4.993616
 20
-2.800803
 40
0.143000
100
AcDbArc
 50
10.872696
 51
61.445304
  0
ARC
  8
Layer0$C$L0
 10
4.993616
 20
-2.800803
 40
0.120000
100
AcDbArc
 50
299.999967
 51
420.000025
  0
ARC
  8
Layer0$C$L0
 10
4.993616
 20
-2.800803
 40
0.120000
100
AcDbArc
 50
119.999990
 51
240.000034
  0
ARC
  8
Layer0$C$L0
 10
4.993616
 20
-2.800803
 40
0.143000
100
AcDbArc
 50
204.976777
 51
241.355635
  0
ARC
  8
Layer0$C$L0
 10
4.993616
 20
-0.308803
 40
0.143000
100
AcDbArc
 50
118.644361
 51
241.355663
  0
ARC
  8
Layer0$C$L0
 10
4.993616
 20
-0.308803
 40
0.120000
100
AcDbArc
 50
119.999990
 51
240.000034
  0
LINE
  8
Layer0$C$L0
 10
4.925066
 20
-2.675305
 11
4.925066
 21
-0.434302
  0
LINE
  8
Layer0$C$L0
 10
4.933616
 20
-2.696881
 11
4.933616
 21
-0.412726
  0
ARC
  8
Layer0$C$L0
 10
4.993616
 20
-0.308803
 40
0.143000
100
AcDbArc
 50
298.554699
 51
420.843663
  0
ARC
  8
Layer0$C$L0
 10
4.993616
 20
-0.308803
 40
0.120000
100
AcDbArc
 50
299.999967
 51
420.000025
  0
LINE
  8
Layer0$C$L0
 10
5.053616
 20
-2.696881
 11
5.053616
 21
-0.412726
  0
LINE
  8
Layer0$C$L0
 10
4.933616
 20
-0.204880
 11
4.933616
 21
-0.117303
  0
LINE
  8
Layer0$C$L0
 10
5.053616
 20
-0.204880
 11
5.053616
 21
-0.117303
  0
LINE
  8
Layer0$C$L0
 10
4.925066
 20
-0.183304
 11
4.925066
 21
-0.117303
  0
CIRCLE
  5
22
100
AcDbEntity
  8
Layer0$C$L0
100
AcDbCircle
 10
4.993616
 20
-0.308803
 40
5.554999E-02
  0
CIRCLE
  5
23
100
AcDbEntity
  8
Layer0$C$L0
100
AcDbCircle
 10
4.993616
 20
-2.800803
 40
5.554999E-02
  0
LINE
  8
Layer0$C$L0
 10
5.063285
 20
-0.183922
 11
5.063285
 21
-0.117303
  0
LINE
  8
Layer0$C$L0
 10
4.321970
 20
-2.992303
 11
4.321970
 21
-2.429803
  0
LINE
  8
Layer0$C$L0
 10
5.061970
 20
-2.992303
 11
5.061970
 21
-2.926409
  0
LINE
  8
Layer0$C$L0
 10
5.061970
 20
-2.675198
 11
5.061970
 21
-0.434408
  0
LINE
  8
Layer0$C$L0
 10
5.061970
 20
-2.992303
 11
5.061970
 21
-2.926409
  0
CIRCLE
  5
24
100
AcDbEntity
  8
Layer0$C$L0
100
AcDbCircle
 10
4.587970
 20
-0.429302
 40
0.101000
  0
CIRCLE
  5
25
100
AcDbEntity
  8
Layer0$C$L0
100
AcDbCircle
 10
4.587970
 20
-2.679303
 40
0.101000
  0
LINE
  8
Layer0$C$L0
 10
4.110066
 20
-0.117303
 11
5.063285
 21
-0.117303
  0
LINE
  8
Layer0$C$L0
 10
4.110066
 20
-2.992303
 11
4.925066
 21
-2.992303
  0
ARC
  8
Layer0$C$L0
 10
4.993616
 20
-2.800803
 40
0.143000
100
AcDbArc
 50
334.952777
 51
370.872688
  0
ARC
  8
Layer0$C$L0
 10
4.993616
 20
-2.800803
 40
0.143000
100
AcDbArc
 50
298.554699
 51
334.952777
  0
ARC
  8
Layer0$C$L0
 10
4.993616
 20
-2.800803
 40
0.143000
100
AcDbArc
 50
169.334938
 51
204.976777
  0
ARC
  8
Layer0$C$L0
 10
4.993616
 20
-2.800803
 40
0.143000
100
AcDbArc
 50
118.644361
 51
169.334883
  0
LINE
  8
Layer0$C$L0
 10
5.061970
 20
-2.992303
 11
4.925066
 21
-2.992303
  0
LINE
  8
Layer0$C$L0
 10
4.321970
 20
-0.679803
 11
4.321970
 21
-0.117303
  0
LINE
  8
Layer0$C$L0
 10
4.257970
 20
-0.679803
 11
4.257970
 21
-2.429803
  0
LINE
  8
Layer0$C$L0
 10
4.917970
 20
-0.679803
 11
4.917970
 21
-2.429803
  0
LINE
  8
Layer0$C$L0
 10
4.257970
 20
-2.429803
 11
4.917970
 21
-2.429803
  0
LINE
  8
Layer0$C$L0
 10
4.257970
 20
-0.679803
 11
4.917970
 21
-0.679803
  0
LINE
  8
Layer0$C$L0
 10
13.148251
 20
-3.106355
 11
13.148251
 21
-0.566355
  0
LINE
  8
Layer0$C$L0
 10
7.043250
 20
-3.106355
 11
16.783255
 21
-3.106355
  0
LINE
  8
Layer0$C$L0
 10
15.428252
 20
-3.106355
 11
15.428252
 21
-0.566355
  0
LINE
  8
Layer0$C$L0
 10
14.238250
 20
-3.106355
 11
14.238250
 21
-1.146355
  0
LINE
  8
Layer0$C$L0
 10
8.848249
 20
-2.826355
 11
10.498249
 21
-2.826355
  0
LINE
  8
Layer0$C$L0
 10
11.498249
 20
-2.546355
 11
13.148251
 21
-2.546355
  0
LINE
  8
Layer0$C$L0
 10
7.043250
 20
-2.266355
 11
10.498249
 21
-2.266355
  0
LINE
  8
Layer0$C$L0
 10
8.848249
 20
-1.986355
 11
10.498249
 21
-1.986355
  0
LINE
  8
Layer0$C$L0
 10
8.848249
 20
-1.706355
 11
10.498249
 21
-1.706355
  0
LINE
  8
Layer0$C$L0
 10
7.848249
 20
-1.126355
 11
16.783255
 21
-1.126355
  0
LINE
  8
Layer0$C$L0
 10
7.848249
 20
-0.846355
 11
13.148251
 21
-0.846355
  0
LINE
  8
Layer0$C$L0
 10
7.043250
 20
-0.566355
 11
16.783255
 21
-0.566355
  0
LINE
  8
Layer0$C$L0
 10
7.848249
 20
-3.106355
 11
7.848249
 21
-0.566355
  0
LINE
  8
Layer0$C$L0
 10
7.043250
 20
-3.106355
 11
7.043250
 21
-0.566355
  0
LINE
  8
Layer0$C$L0
 10
3.440641
 20
-5.083077
 11
3.440641
 21
-4.430078
  0
CIRCLE
  5
26
100
AcDbEntity
  8
Layer0$C$L0
100
AcDbCircle
 10
3.358616
 20
-2.800803
 40
5.554999E-02
  0
LINE
  8
Layer0$C$L0
 10
3.437969
 20
-0.679803
 11
4.097970
 21
-0.679803
  0
LINE
  8
Layer0$C$L0
 10
3.437969
 20
-2.429803
 11
4.097970
 21
-2.429803
  0
LINE
  8
Layer0$C$L0
 10
4.097970
 20
-0.679803
 11
4.097970
 21
-2.429803
  0
LINE
  8
Layer0$C$L0
 10
3.437969
 20
-0.679803
 11
3.437969
 21
-2.429803
  0
ARC
  8
Layer0$C$L0
 10
3.449002
 20
-4.400078
 40
3.000000E-02
100
AcDbArc
 50
270.000001
 51
359.999983
  0
LINE
  8
Layer0$C$L0
 10
3.449002
 20
-4.430078
 11
3.420685
 21
-4.430078
  0
LINE
  8
Layer0$C$L0
 10
3.479002
 20
-4.400078
 11
3.479002
 21
-3.975077
  0
LINE
  8
Layer0$C$L0
 10
3.289939
 20
-5.863077
 11
4.104939
 21
-5.863077
  0
LINE
  8
Layer0$C$L0
 10
3.501843
 20
-5.738077
 11
4.105491
 21
-5.738077
  0
LINE
  8
Layer0$C$L0
 10
3.298358
 20
-3.954946
 11
3.289939
 21
-5.863077
  0
LINE
  8
Layer0$C$L0
 10
3.428158
 20
-5.863077
 11
3.418639
 21
-3.954928
  0
LINE
  8
Layer0$C$L0
 10
3.501843
 20
-5.267077
 11
3.425185
 21
-5.267077
  0
LINE
  8
Layer0$C$L0
 10
3.501843
 20
-5.267077
 11
3.501843
 21
-5.738077
  0
LINE
  8
Layer0$C$L0
 10
4.316844
 20
-5.267077
 11
4.240185
 21
-5.267077
  0
ARC
  8
Layer0$C$L0
 10
4.203639
 20
-3.955078
 40
3.000000E-02
100
AcDbArc
 50
0.285851
 51
90.000003
  0
ARC
  8
Layer0$C$L0
 10
4.143358
 20
-3.955078
 40
3.000000E-02
100
AcDbArc
 50
90.000003
 51
179.747220
  0
ARC
  8
Layer0$C$L0
 10
4.082940
 20
-3.955078
 40
3.000000E-02
100
AcDbArc
 50
90.000003
 51
178.939768
  0
ARC
  8
Layer0$C$L0
 10
4.264007
 20
-3.955078
 40
3.000000E-02
100
AcDbArc
 50
0.996987
 51
90.000003
  0
LINE
  8
Layer0$C$L0
 10
4.243158
 20
-5.863077
 11
4.233639
 21
-3.954928
  0
LINE
  8
Layer0$C$L0
 10
4.113358
 20
-3.954946
 11
4.105491
 21
-5.738077
  0
LINE
  8
Layer0$C$L0
 10
4.294003
 20
-3.954556
 11
4.316821
 21
-5.265744
  0
LINE
  8
Layer0$C$L0
 10
4.052945
 20
-3.954522
 11
4.019937
 21
-5.738077
  0
LINE
  8
Layer0$C$L0
 10
4.104939
 20
-5.863077
 11
4.243158
 21
-5.863077
  0
LINE
  8
Layer0$C$L0
 10
4.082940
 20
-3.925077
 11
4.264007
 21
-3.925077
  0
LINE
  8
Layer0$C$L0
 10
3.501843
 20
-5.332077
 11
4.027451
 21
-5.332077
  0
LINE
  8
Layer0$C$L0
 10
3.498641
 20
-5.083077
 11
4.032059
 21
-5.083077
  0
LINE
  8
Layer0$C$L0
 10
3.498641
 20
-5.083077
 11
3.424267
 21
-5.083077
  0
LINE
  8
Layer0$C$L0
 10
3.426969
 20
-2.675198
 11
3.426969
 21
-2.516532
  0
LINE
  8
Layer0$C$L0
 10
3.426969
 20
-2.516532
 11
3.426969
 21
-0.434408
  0
LINE
  8
Layer0$C$L0
 10
3.290066
 20
-2.992303
 11
3.290066
 21
-2.926302
  0
LINE
  8
Layer0$C$L0
 10
3.298616
 20
-2.992303
 11
3.298616
 21
-2.904726
  0
LINE
  8
Layer0$C$L0
 10
3.418616
 20
-2.992303
 11
3.418616
 21
-2.904726
  0
ARC
  8
Layer0$C$L0
 10
3.358616
 20
-2.800803
 40
0.143000
100
AcDbArc
 50
10.872696
 51
61.445304
  0
ARC
  8
Layer0$C$L0
 10
3.358616
 20
-2.800803
 40
0.120000
100
AcDbArc
 50
299.999967
 51
420.000025
  0
ARC
  8
Layer0$C$L0
 10
3.358616
 20
-2.800803
 40
0.120000
100
AcDbArc
 50
119.999990
 51
240.000034
  0
ARC
  8
Layer0$C$L0
 10
3.358616
 20
-2.800803
 40
0.143000
100
AcDbArc
 50
204.976777
 51
241.355635
  0
ARC
  8
Layer0$C$L0
 10
3.358616
 20
-0.308803
 40
0.143000
100
AcDbArc
 50
118.644361
 51
241.355663
  0
ARC
  8
Layer0$C$L0
 10
3.358616
 20
-0.308803
 40
0.120000
100
AcDbArc
 50
119.999990
 51
240.000034
  0
LINE
  8
Layer0$C$L0
 10
3.290066
 20
-2.675305
 11
3.290066
 21
-0.434302
  0
LINE
  8
Layer0$C$L0
 10
3.298616
 20
-2.696881
 11
3.298616
 21
-0.412726
  0
ARC
  8
Layer0$C$L0
 10
3.358616
 20
-0.308803
 40
0.143000
100
AcDbArc
 50
298.554699
 51
420.843663
  0
ARC
  8
Layer0$C$L0
 10
3.358616
 20
-0.308803
 40
0.120000
100
AcDbArc
 50
299.999967
 51
420.000025
  0
LINE
  8
Layer0$C$L0
 10
3.418616
 20
-2.696881
 11
3.418616
 21
-0.412726
  0
LINE
  8
Layer0$C$L0
 10
3.298616
 20
-0.204880
 11
3.298616
 21
-0.117303
  0
LINE
  8
Layer0$C$L0
 10
3.418616
 20
-0.204880
 11
3.418616
 21
-0.117303
  0
LINE
  8
Layer0$C$L0
 10
3.290066
 20
-0.183304
 11
3.290066
 21
-0.117303
  0
CIRCLE
  5
27
100
AcDbEntity
  8
Layer0$C$L0
100
AcDbCircle
 10
3.358616
 20
-0.308803
 40
5.554999E-02
  0
LINE
  8
Layer0$C$L0
 10
3.428284
 20
-0.183922
 11
3.428284
 21
-0.117303
  0
LINE
  8
Layer0$C$L0
 10
3.426969
 20
-2.992303
 11
3.426969
 21
-2.926409
  0
ARC
  8
Layer0$C$L0
 10
3.358616
 20
-2.800803
 40
0.143000
100
AcDbArc
 50
334.952777
 51
370.872688
  0
ARC
  8
Layer0$C$L0
 10
3.358616
 20
-2.800803
 40
0.143000
100
AcDbArc
 50
298.554699
 51
334.952777
  0
ARC
  8
Layer0$C$L0
 10
3.358616
 20
-2.800803
 40
0.143000
100
AcDbArc
 50
169.334938
 51
204.976777
  0
ARC
  8
Layer0$C$L0
 10
3.358616
 20
-2.800803
 40
0.143000
100
AcDbArc
 50
118.644361
 51
169.334883
  0
LINE
  8
Layer0$C$L0
 10
3.501970
 20
-0.679803
 11
3.501970
 21
-0.117303
  0
LINE
  8
Layer0$C$L0
 10
4.241970
 20
-2.992303
 11
4.105066
 21
-2.992303
  0
ARC
  8
Layer0$C$L0
 10
4.173616
 20
-2.800803
 40
0.143000
100
AcDbArc
 50
118.644361
 51
169.334883
  0
ARC
  8
Layer0$C$L0
 10
4.173616
 20
-2.800803
 40
0.143000
100
AcDbArc
 50
169.334938
 51
204.976777
  0
ARC
  8
Layer0$C$L0
 10
4.173616
 20
-2.800803
 40
0.143000
100
AcDbArc
 50
298.554699
 51
334.952777
  0
ARC
  8
Layer0$C$L0
 10
4.173616
 20
-2.800803
 40
0.143000
100
AcDbArc
 50
334.952777
 51
370.872688
  0
LINE
  8
Layer0$C$L0
 10
3.290066
 20
-2.992303
 11
4.105066
 21
-2.992303
  0
LINE
  8
Layer0$C$L0
 10
3.290066
 20
-0.117303
 11
4.243285
 21
-0.117303
  0
CIRCLE
  5
28
100
AcDbEntity
  8
Layer0$C$L0
100
AcDbCircle
 10
3.767969
 20
-2.679303
 40
0.101000
  0
CIRCLE
  5
90
100
AcDbEntity
  8
Layer0$C$L0
100
AcDbCircle
 10
3.767969
 20
-0.429302
 40
0.101000
  0
LINE
  8
Layer0$C$L0
 10
4.241970
 20
-2.992303
 11
4.241970
 21
-2.926409
  0
LINE
  8
Layer0$C$L0
 10
4.241970
 20
-2.675198
 11
4.241970
 21
-0.434408
  0
LINE
  8
Layer0$C$L0
 10
4.241970
 20
-2.992303
 11
4.241970
 21
-2.926409
  0
LINE
  8
Layer0$C$L0
 10
3.501970
 20
-2.992303
 11
3.501970
 21
-2.429803
  0
LINE
  8
Layer0$C$L0
 10
4.243285
 20
-0.183922
 11
4.243285
 21
-0.117303
  0
CIRCLE
  5
91
100
AcDbEntity
  8
Layer0$C$L0
100
AcDbCircle
 10
4.173616
 20
-2.800803
 40
5.554999E-02
  0
CIRCLE
  5
92
100
AcDbEntity
  8
Layer0$C$L0
100
AcDbCircle
 10
4.173616
 20
-0.308803
 40
5.554999E-02
  0
LINE
  8
Layer0$C$L0
 10
4.105066
 20
-0.183304
 11
4.105066
 21
-0.117303
  0
LINE
  8
Layer0$C$L0
 10
4.233616
 20
-0.204880
 11
4.233616
 21
-0.117303
  0
LINE
  8
Layer0$C$L0
 10
4.113616
 20
-0.204880
 11
4.113616
 21
-0.117303
  0
LINE
  8
Layer0$C$L0
 10
4.233616
 20
-2.696881
 11
4.233616
 21
-0.412726
  0
ARC
  8
Layer0$C$L0
 10
4.173616
 20
-0.308803
 40
0.120000
100
AcDbArc
 50
299.999967
 51
420.000025
  0
ARC
  8
Layer0$C$L0
 10
4.173616
 20
-0.308803
 40
0.143000
100
AcDbArc
 50
298.554699
 51
420.843663
  0
LINE
  8
Layer0$C$L0
 10
4.113616
 20
-2.696881
 11
4.113616
 21
-0.412726
  0
LINE
  8
Layer0$C$L0
 10
4.105066
 20
-2.675305
 11
4.105066
 21
-0.434302
  0
ARC
  8
Layer0$C$L0
 10
4.173616
 20
-0.308803
 40
0.120000
100
AcDbArc
 50
119.999990
 51
240.000034
  0
ARC
  8
Layer0$C$L0
 10
4.173616
 20
-0.308803
 40
0.143000
100
AcDbArc
 50
118.644361
 51
241.355663
  0
ARC
  8
Layer0$C$L0
 10
4.173616
 20
-2.800803
 40
0.143000
100
AcDbArc
 50
204.976777
 51
241.355635
  0
ARC
  8
Layer0$C$L0
 10
4.173616
 20
-2.800803
 40
0.120000
100
AcDbArc
 50
119.999990
 51
240.000034
  0
ARC
  8
Layer0$C$L0
 10
4.173616
 20
-2.800803
 40
0.120000
100
AcDbArc
 50
299.999967
 51
420.000025
  0
ARC
  8
Layer0$C$L0
 10
4.173616
 20
-2.800803
 40
0.143000
100
AcDbArc
 50
10.872696
 51
61.445304
  0
LINE
  8
Layer0$C$L0
 10
4.233616
 20
-2.992303
 11
4.233616
 21
-2.904726
  0
LINE
  8
Layer0$C$L0
 10
4.113616
 20
-2.992303
 11
4.113616
 21
-2.904726
  0
LINE
  8
Layer0$C$L0
 10
4.105066
 20
-2.992303
 11
4.105066
 21
-2.926302
  0
LINE
  8
Layer0$C$L0
 10
3.767969
 20
-2.487664
 11
3.767969
 21
-2.915677
  0
LINE
  8
Layer0$C$L0
 10
3.237945
 20
-4.400078
 11
3.237945
 21
-3.975077
  0
LINE
  8
Layer0$C$L0
 10
3.267945
 20
-4.430078
 11
3.296262
 21
-4.430078
  0
ARC
  8
Layer0$C$L0
 10
3.267945
 20
-4.400078
 40
3.000000E-02
100
AcDbArc
 50
180.000019
 51
270.000001
  0
LINE
  8
Layer0$C$L0
 10
3.767969
 20
-0.242065
 11
3.767969
 21
-0.611446
  0
LINE
  8
Layer0$C$L0
 10
3.571612
 20
-0.429302
 11
3.929266
 21
-0.429302
  0
LINE
  8
Layer0$C$L0
 10
3.583338
 20
-2.679303
 11
3.958582
 21
-2.679303
  0
ENDSEC
  0
EOF
